[VON] Mob Psycho 100 - 01 [1080p][6412C836].mkv


File Size1.401 GB (1,504,355,895 bytes)
DownloadUpfile.mobi
ClickNUpload: Part1, Part2
Jheberg: Part1, Part2
MultiUp: Part1, Part2
OpenLoad: Part1, Part2
Sendspace: Part1, Part2, Part3, Part4, Part5
SolidFiles: Part1, Part2, Part3
Encrypted DownloadDirect: Part1, Part2
Password:
HashesCRC32: 6412C836, MD5: 88471E5E43FBC937A4BC3FDFC99C32E7, SHA1: CE7C2AC29111E90F03C52333B0490B1D68C168E2, SHA256: 9DBABF302D04EBA7A91B49FAEEEFABB2E4A18B5A7A0037230CAB74FB2958EEF2, ED2K: D4F2A063940367F191741E880BC2151B
Screenshots
screenshotscreenshotscreenshotscreenshotscreenshot
SubtitlesAll Attachments | Glue [eng, ASS]
Additional Info
General
Unique ID                                : 190804324752084946621932091799676030479 (0x8F8B93858114724D8C01D22EB6928E0F)
Complete name                            : [VON] Mob Psycho 100 - 01 [1080p][6412C836].mkv
Format                                   : Matroska
Format version                           : Version 4 / Version 2
File size                                : 1.40 GiB
Duration                                 : 24 min 11 s
Overall bit rate mode                    : Variable
Overall bit rate                         : 8 289 kb/s
Encoded date                             : UTC 2017-12-17 09:53:40
Writing application                      : mkvmerge v18.0.0 ('Apricity') 64-bit
Writing library                          : libebml v1.3.5 + libmatroska v1.4.8
Attachments                              : Aero Matics Bold.ttf / ArchitectsDaughter_0.ttf / BrushTypeBold.ttf / Clearface SSi Bold.ttf / DCPRyuuMoji-W12.ttf / Discognate.otf / Ignite the Light.ttf / montara-gothic-webfont.ttf / Montara-Italic.otf / RaysHand-Regular.ttf

Video
ID                                       : 1
Format                                   : AVC
Format/Info                              : Advanced Video Codec
Format profile                           : High@L5
Format settings, CABAC                   : Yes
Format settings, ReFrames                : 10 frames
Codec ID                                 : V_MPEG4/ISO/AVC
Duration                                 : 24 min 11 s
Bit rate                                 : 7 502 kb/s
Width                                    : 1 920 pixels
Height                                   : 1 080 pixels
Display aspect ratio                     : 16:9
Frame rate mode                          : Constant
Frame rate                               : 23.976 (24000/1001) FPS
Color space                              : YUV
Chroma subsampling                       : 4:2:0
Bit depth                                : 8 bits
Scan type                                : Progressive
Bits/(Pixel*Frame)                       : 0.151
Stream size                              : 1.27 GiB (91%)
Title                                    : SFEO-Raws
Writing library                          : x264 core 150 r2773+45 df9a66c 7mod [8-bit@all X86_64]
Encoding settings                        : cabac=1 / ref=10 / deblock=1:0:0 / analyse=0x3:0x113 / me=umh / subme=9 / psy=1 / fade_compensate=0.00 / psy_rd=0.80:0.25 / mixed_ref=1 / me_range=32 / chroma_me=1 / trellis=1 / 8x8dct=1 / cqm=0 / deadzone=21,11 / fast_pskip=0 / chroma_qp_offset=-4 / threads=24 / lookahead_threads=2 / sliced_threads=0 / nr=0 / decimate=1 / interlaced=0 / bluray_compat=0 / constrained_intra=0 / fgo=1 / bframes=8 / b_pyramid=2 / b_adapt=1 / b_bias=0 / direct=1 / weightb=1 / open_gop=0 / weightp=2 / keyint=250 / keyint_min=23 / scenecut=40 / intra_refresh=0 / rc_lookahead=70 / rc=crf / mbtree=1 / crf=17.0000 / qcomp=0.60 / qpmin=0:0:0 / qpmax=69:69:69 / qpstep=4 / ip_ratio=1.40 / aq=3:0.80 / aq-sensitivity=10.00 / aq-factor=1.00:1.00:1.00 / aq2=0 / aq3=0
Language                                 : Japanese
Default                                  : Yes
Forced                                   : No

Audio
ID                                       : 2
Format                                   : FLAC
Format/Info                              : Free Lossless Audio Codec
Codec ID                                 : A_FLAC
Duration                                 : 24 min 11 s
Bit rate mode                            : Variable
Bit rate                                 : 779 kb/s
Channel(s)                               : 2 channels
Channel positions                        : Front: L R
Sampling rate                            : 48.0 kHz
Frame rate                               : 11.719 FPS (4096 spf)
Bit depth                                : 16 bits
Stream size                              : 135 MiB (9%)
Title                                    : FLAC
Writing library                          : libFLAC 1.2.1 (UTC 2007-09-17)
Language                                 : Japanese
Default                                  : Yes
Forced                                   : No

Text
ID                                       : 3
Format                                   : ASS
Codec ID                                 : S_TEXT/ASS
Codec ID/Info                            : Advanced Sub Station Alpha
Duration                                 : 22 min 24 s
Bit rate                                 : 2 439 b/s
Count of elements                        : 3389
Compression mode                         : Lossless
Stream size                              : 400 KiB (0%)
Title                                    : Glue
Language                                 : English
Default                                  : Yes
Forced                                   : No

Menu
00:00:00.033                             : en:Intro
00:01:45.330                             : en:Part A
00:07:54.990                             : en:OP
00:09:24.960                             : en:Part B
00:13:10.930                             : en:Part C
00:22:25.900                             : en:ED
00:23:54.910                             : en:Preview

Other Files in this Torrent
[VON] Mob Psycho 100 - 01 [1080p][6412C836].mkv
beta
Anime DDL+NZB mirror
Current Time: 06/12/2019 10:35



About/FAQs