[Victor1139] The Melancholy of Haruhi Suzumiya (2006) - 10 [DVDrip 576p][7748681C].mkv


File Size563.8 MB (591,166,493 bytes)
DownloadClickNUpload | DownloadGG | GoFile | KrakenFiles | MdiaLoad
MultiUp: Part1
  • BdUpload
  • DownAce
  • Fichier
  • FileCloud
  • Filerio
  • FilesCdn
  • IndiShare
  • Kbagi
  • Turbobit
  • UpToBox
  • Uppit
, Part2
  • BdUpload
  • DownAce
  • Fichier
  • FileCloud
  • Filerio
  • FilesCdn
  • IndiShare
  • Kbagi
  • Turbobit
  • UpToBox
  • Uppit
HashesCRC32: 7748681C, MD5: B0609E17D2E843F52F85D1CEDEE42AAF, SHA1: 087AB670F226E004A39E3196040C94EE83F4755A, SHA256: 7DF6B518DCA3630BBF947EE0FE44E746AA44742E550EDB46413816E388CB35DD, ED2K: 632144EF1A9EAB7787326A1942ABE17F
Screenshots
screenshotscreenshotscreenshotscreenshotscreenshot
SubtitlesAll Attachments | English Songs & Signs [eng, ASS], English [eng, ASS], French Songs & Signs [fre, VOB], French Songs & Signs [fre, VOB], French [fre, VOB], French [fre, VOB]
Additional Info
General
Unique ID                                : 119564392127522523551831661295294849510 (0x59F343A9B1D67B190E8733612A99A1E6)
Complete name                            : [Victor1139] The Melancholy of Haruhi Suzumiya (2006) - 10 [DVDrip 576p][7748681C].mkv
Format                                   : Matroska
Format version                           : Version 4
File size                                : 564 MiB
Duration                                 : 23 min 41 s
Overall bit rate                         : 3 326 kb/s
Encoded date                             : UTC 2023-05-25 01:16:17
Writing application                      : mkvmerge v71.0.0 ('Altitude') 64-bit
Writing library                          : libebml v1.4.4 + libmatroska v1.7.1
Attachments                              : edo.ttf / epmgobld_haruhi00.ttf / GosmickSans.ttf / GosmickSansOblique.ttf / KOMTXT__.ttf / KOMTXTB_.ttf / KOMTXTK_.ttf / KOMTXTKB.ttf / pixelFJ8pt1__.TTF / PixelFJVerdana12pt.ttf / WarnockPro-LightDisp.ttf / angelina.TTF / animeace2_reg.ttf / epminbld_opening.ttf / Folks-Bold.ttf / GosmickSansBold.ttf / MyriadPro-Bold.ttf / MyriadPro-RegularHaruhi.ttf / ChaparralPro-BoldIt.ttf / ChaparralPro-SemiboldIt.ttf / epmgobld_ending.ttf / epmgobld_ending.ttf / GosmickSansBold.ttf / Marker SD 1.2.ttf / MyriadPro-Bold.ttf / MyriadPro-RegularHaruhi.ttf / MyriadPro-SemiCn.ttf / MyriadPro-SemiCnIt.ttf

Video
ID                                       : 1
Format                                   : AVC
Format/Info                              : Advanced Video Codec
Format profile                           : High 10@L5
Format settings                          : CABAC / 16 Ref Frames
Format settings, CABAC                   : Yes
Format settings, Reference frames        : 16 frames
Codec ID                                 : V_MPEG4/ISO/AVC
Duration                                 : 23 min 40 s
Bit rate                                 : 2 646 kb/s
Width                                    : 1 016 pixels
Height                                   : 576 pixels
Display aspect ratio                     : 16:9
Frame rate mode                          : Constant
Frame rate                               : 23.976 (24000/1001) FPS
Color space                              : YUV
Chroma subsampling                       : 4:2:0
Bit depth                                : 10 bits
Scan type                                : Progressive
Bits/(Pixel*Frame)                       : 0.189
Stream size                              : 448 MiB (80%)
Writing library                          : x264 core 164 r3100 ed0f7a6
Encoding settings                        : cabac=1 / ref=16 / deblock=1:1:1 / analyse=0x3:0x133 / me=umh / subme=10 / psy=1 / psy_rd=0.40:0.00 / mixed_ref=1 / me_range=32 / chroma_me=1 / trellis=2 / 8x8dct=1 / cqm=0 / deadzone=21,11 / fast_pskip=0 / chroma_qp_offset=-2 / threads=18 / lookahead_threads=4 / sliced_threads=0 / nr=0 / decimate=1 / interlaced=0 / bluray_compat=0 / constrained_intra=0 / bframes=16 / b_pyramid=2 / b_adapt=2 / b_bias=0 / direct=3 / weightb=1 / open_gop=1 / weightp=2 / keyint=250 / keyint_min=23 / scenecut=40 / intra_refresh=0 / rc_lookahead=60 / rc=crf / mbtree=1 / crf=13.5 / qcomp=0.70 / qpmin=4 / qpmax=51 / qpstep=4 / ip_ratio=1.40 / aq=1:0.60
Language                                 : English
Default                                  : Yes
Forced                                   : No

Audio #1
ID                                       : 2
Format                                   : AAC LC
Format/Info                              : Advanced Audio Codec Low Complexity
Codec ID                                 : A_AAC-2
Duration                                 : 23 min 41 s
Bit rate                                 : 223 kb/s
Channel(s)                               : 2 channels
Channel layout                           : L R
Sampling rate                            : 48.0 kHz
Frame rate                               : 46.875 FPS (1024 SPF)
Compression mode                         : Lossy
Stream size                              : 37.8 MiB (7%)
Title                                    : English 2.0
Language                                 : English
Default                                  : Yes
Forced                                   : No

Audio #2
ID                                       : 3
Format                                   : AC-3
Format/Info                              : Audio Coding 3
Commercial name                          : Dolby Digital
Codec ID                                 : A_AC3
Duration                                 : 23 min 39 s
Bit rate mode                            : Constant
Bit rate                                 : 224 kb/s
Channel(s)                               : 2 channels
Channel layout                           : L R
Sampling rate                            : 48.0 kHz
Frame rate                               : 31.250 FPS (1536 SPF)
Compression mode                         : Lossy
Delay relative to video                  : 539 ms
Stream size                              : 37.9 MiB (7%)
Title                                    : French 2.0
Language                                 : French
Service kind                             : Complete Main
Default                                  : No
Forced                                   : No

Audio #3
ID                                       : 4
Format                                   : AAC LC
Format/Info                              : Advanced Audio Codec Low Complexity
Codec ID                                 : A_AAC-2
Duration                                 : 23 min 41 s
Bit rate                                 : 216 kb/s
Channel(s)                               : 2 channels
Channel layout                           : L R
Sampling rate                            : 48.0 kHz
Frame rate                               : 46.875 FPS (1024 SPF)
Compression mode                         : Lossy
Stream size                              : 36.5 MiB (6%)
Title                                    : Japanese 2.0
Language                                 : Japanese
Default                                  : No
Forced                                   : No

Text #1
ID                                       : 5
Format                                   : ASS
Codec ID                                 : S_TEXT/ASS
Codec ID/Info                            : Advanced Sub Station Alpha
Duration                                 : 22 min 5 s
Bit rate                                 : 96 b/s
Count of elements                        : 135
Compression mode                         : Lossless
Stream size                              : 15.6 KiB (0%)
Title                                    : English Songs & Signs
Language                                 : English
Default                                  : Yes
Forced                                   : No

Text #2
ID                                       : 6
Format                                   : ASS
Codec ID                                 : S_TEXT/ASS
Codec ID/Info                            : Advanced Sub Station Alpha
Duration                                 : 23 min 17 s
Bit rate                                 : 252 b/s
Count of elements                        : 601
Compression mode                         : Lossless
Stream size                              : 43.1 KiB (0%)
Title                                    : English
Language                                 : English
Default                                  : No
Forced                                   : No

Text #3
ID                                       : 7
Format                                   : VobSub
Muxing mode                              : zlib
Codec ID                                 : S_VOBSUB
Codec ID/Info                            : Picture based subtitle format used on DVDs
Duration                                 : 22 min 4 s
Bit rate                                 : 361 b/s
Count of elements                        : 30
Stream size                              : 58.5 KiB (0%)
Title                                    : French Songs & Signs
Language                                 : French
Default                                  : No
Forced                                   : No

Text #4
ID                                       : 8
Format                                   : VobSub
Muxing mode                              : zlib
Codec ID                                 : S_VOBSUB
Codec ID/Info                            : Picture based subtitle format used on DVDs
Duration                                 : 23 min 15 s
Bit rate                                 : 3 301 b/s
Count of elements                        : 361
Stream size                              : 563 KiB (0%)
Title                                    : French
Language                                 : French
Default                                  : No
Forced                                   : No

Menu
00:00:00.000                             : :Prologue
00:01:35.011                             : :Opening
00:03:04.976                             : :Part A
00:10:07.982                             : :Part B
00:22:19.963                             : :Ending
00:23:25.028                             : :Next Episode Preview

Other Files in this Torrent
[Victor1139] The Melancholy of Haruhi Suzumiya (2006) - 10 [DVDrip 576p][7748681C].mkv
beta
Anime DDL+NZB mirror
Current Time: 20/07/2024 23:05



About/FAQs

Discord