[Victor1139] The Melancholy of Haruhi Suzumiya (2006) - 08 [DVDrip 576p][7F455036].mkv


File Size416.6 MB (436,860,921 bytes)
DownloadClickNUpload | DownloadGG | GoFile | KrakenFiles | MdiaLoad | MultiUp
  • BdUpload
  • DownAce
  • Fichier
  • FileCloud
  • Filerio
  • FilesCdn
  • IndiShare
  • Kbagi
  • Turbobit
  • UpToBox
  • Uppit
HashesCRC32: 7F455036, MD5: 3DBCA97B825B925246AA188A368A8E5E, SHA1: D5B62CFAA311FDD924D6FC5F5D71CD1BFF2A60E7, SHA256: 20B0F728156648D6396502662B582CF6175A7D86C0632F89D9CE43821A78229D, ED2K: 92AD3316DE4CDE1B0166C3A04C4C295E
Screenshots
screenshotscreenshotscreenshotscreenshotscreenshot
SubtitlesAll Attachments | English Songs & Signs [eng, ASS], English [eng, ASS], French Songs & Signs [fre, VOB], French Songs & Signs [fre, VOB], French [fre, VOB], French [fre, VOB]
Additional Info
General
Unique ID                                : 56893712708393395996988298446584470598 (0x2ACD549B5620D311DF83699AFBACDC46)
Complete name                            : [Victor1139] The Melancholy of Haruhi Suzumiya (2006) - 08 [DVDrip 576p][7F455036].mkv
Format                                   : Matroska
Format version                           : Version 4
File size                                : 417 MiB
Duration                                 : 24 min 31 s
Overall bit rate                         : 2 375 kb/s
Encoded date                             : UTC 2023-05-21 23:10:51
Writing application                      : mkvmerge v71.0.0 ('Altitude') 64-bit
Writing library                          : libebml v1.4.4 + libmatroska v1.7.1
Attachments                              : edo.ttf / epmgobld_haruhi00.ttf / GosmickSans.ttf / GosmickSansOblique.ttf / KOMTXT__.ttf / KOMTXTB_.ttf / KOMTXTK_.ttf / KOMTXTKB.ttf / pixelFJ8pt1__.TTF / angelina.TTF / animeace2_reg.ttf / epminbld_opening.ttf / Folks-Bold.ttf / GosmickSansBold.ttf / MyriadPro-Bold.ttf / MyriadPro-RegularHaruhi.ttf / ChaparralPro-BoldIt.ttf / ChaparralPro-SemiboldIt.ttf / epmgobld_ending.ttf / epmgobld_ending.ttf / GosmickSansBold.ttf / Marker SD 1.2.ttf / MyriadPro-Bold.ttf / MyriadPro-RegularHaruhi.ttf / MyriadPro-SemiCn.ttf / MyriadPro-SemiCnIt.ttf / PixelFJVerdana12pt.ttf / verdana.TTF / verdanab.TTF / WarnockPro-LightDisp.ttf

Video
ID                                       : 1
Format                                   : AVC
Format/Info                              : Advanced Video Codec
Format profile                           : High 10@L5
Format settings                          : CABAC / 16 Ref Frames
Format settings, CABAC                   : Yes
Format settings, Reference frames        : 16 frames
Codec ID                                 : V_MPEG4/ISO/AVC
Duration                                 : 24 min 30 s
Bit rate                                 : 1 692 kb/s
Width                                    : 1 016 pixels
Height                                   : 576 pixels
Display aspect ratio                     : 16:9
Frame rate mode                          : Constant
Frame rate                               : 23.976 (23976/1000) FPS
Original frame rate                      : 119.880 FPS
Color space                              : YUV
Chroma subsampling                       : 4:2:0
Bit depth                                : 10 bits
Scan type                                : Progressive
Bits/(Pixel*Frame)                       : 0.121
Stream size                              : 297 MiB (71%)
Writing library                          : x264 core 164 r3100 ed0f7a6
Encoding settings                        : cabac=1 / ref=16 / deblock=1:1:1 / analyse=0x3:0x133 / me=umh / subme=10 / psy=1 / psy_rd=0.40:0.00 / mixed_ref=1 / me_range=32 / chroma_me=1 / trellis=2 / 8x8dct=1 / cqm=0 / deadzone=21,11 / fast_pskip=0 / chroma_qp_offset=-2 / threads=18 / lookahead_threads=4 / sliced_threads=0 / nr=0 / decimate=1 / interlaced=0 / bluray_compat=0 / constrained_intra=0 / bframes=16 / b_pyramid=2 / b_adapt=2 / b_bias=0 / direct=3 / weightb=1 / open_gop=1 / weightp=2 / keyint=250 / keyint_min=23 / scenecut=40 / intra_refresh=0 / rc_lookahead=60 / rc=crf / mbtree=1 / crf=13.5 / qcomp=0.70 / qpmin=4 / qpmax=51 / qpstep=4 / ip_ratio=1.40 / aq=1:0.60
Language                                 : English
Default                                  : Yes
Forced                                   : No

Audio #1
ID                                       : 2
Format                                   : AAC LC
Format/Info                              : Advanced Audio Codec Low Complexity
Codec ID                                 : A_AAC-2
Duration                                 : 24 min 30 s
Bit rate                                 : 223 kb/s
Channel(s)                               : 2 channels
Channel layout                           : L R
Sampling rate                            : 48.0 kHz
Frame rate                               : 46.875 FPS (1024 SPF)
Compression mode                         : Lossy
Stream size                              : 39.0 MiB (9%)
Title                                    : English 2.0
Language                                 : English
Default                                  : Yes
Forced                                   : No

Audio #2
ID                                       : 3
Format                                   : AC-3
Format/Info                              : Audio Coding 3
Commercial name                          : Dolby Digital
Codec ID                                 : A_AC3
Duration                                 : 24 min 30 s
Bit rate mode                            : Constant
Bit rate                                 : 224 kb/s
Channel(s)                               : 2 channels
Channel layout                           : L R
Sampling rate                            : 48.0 kHz
Frame rate                               : 31.250 FPS (1536 SPF)
Compression mode                         : Lossy
Delay relative to video                  : 13 ms
Stream size                              : 39.3 MiB (9%)
Title                                    : French 2.0
Language                                 : French
Service kind                             : Complete Main
Default                                  : No
Forced                                   : No

Audio #3
ID                                       : 4
Format                                   : AAC LC
Format/Info                              : Advanced Audio Codec Low Complexity
Codec ID                                 : A_AAC-2
Duration                                 : 24 min 31 s
Bit rate                                 : 215 kb/s
Channel(s)                               : 2 channels
Channel layout                           : L R
Sampling rate                            : 48.0 kHz
Frame rate                               : 46.875 FPS (1024 SPF)
Compression mode                         : Lossy
Stream size                              : 37.7 MiB (9%)
Title                                    : Japanese 2.0
Language                                 : Japanese
Default                                  : No
Forced                                   : No

Text #1
ID                                       : 5
Format                                   : ASS
Codec ID                                 : S_TEXT/ASS
Codec ID/Info                            : Advanced Sub Station Alpha
Duration                                 : 24 min 19 s
Bit rate                                 : 142 b/s
Count of elements                        : 209
Compression mode                         : Lossless
Stream size                              : 25.3 KiB (0%)
Title                                    : English Songs & Signs
Language                                 : English
Default                                  : Yes
Forced                                   : No

Text #2
ID                                       : 6
Format                                   : ASS
Codec ID                                 : S_TEXT/ASS
Codec ID/Info                            : Advanced Sub Station Alpha
Duration                                 : 24 min 29 s
Bit rate                                 : 322 b/s
Count of elements                        : 721
Compression mode                         : Lossless
Stream size                              : 57.9 KiB (0%)
Title                                    : English
Language                                 : English
Default                                  : No
Forced                                   : No

Text #3
ID                                       : 7
Format                                   : VobSub
Muxing mode                              : zlib
Codec ID                                 : S_VOBSUB
Codec ID/Info                            : Picture based subtitle format used on DVDs
Duration                                 : 23 min 54 s
Bit rate                                 : 351 b/s
Count of elements                        : 44
Stream size                              : 61.5 KiB (0%)
Title                                    : French Songs & Signs
Language                                 : French
Default                                  : No
Forced                                   : No

Text #4
ID                                       : 8
Format                                   : VobSub
Muxing mode                              : zlib
Codec ID                                 : S_VOBSUB
Codec ID/Info                            : Picture based subtitle format used on DVDs
Duration                                 : 24 min 27 s
Bit rate                                 : 3 502 b/s
Count of elements                        : 381
Stream size                              : 628 KiB (0%)
Title                                    : French
Language                                 : French
Default                                  : No
Forced                                   : No

Menu
00:00:00.000                             : :Prologue
00:00:31.031                             : :Opening
00:02:01.079                             : :Part A
00:07:52.930                             : :Part B
00:23:09.930                             : :Ending
00:24:14.911                             : :Next Episode Preview

Other Files in this Torrent
[Victor1139] The Melancholy of Haruhi Suzumiya (2006) - 08 [DVDrip 576p][7F455036].mkv
beta
Anime DDL+NZB mirror
Current Time: 20/07/2024 22:01



About/FAQs

Discord