[Valenciano] Blue Lock - 17 [1080p][AV1 10bit][AAC][Multi-Sub] (Weekly).mkv


File Size381.8 MB (400,364,300 bytes)
DownloadAnonFiles | ClickNUpload | DownloadGG | KrakenFiles | MultiUp
  • BdUpload
  • DownAce
  • Fichier
  • FileCloud
  • Filerio
  • FilesCdn
  • IndiShare
  • Kbagi
  • Turbobit
  • UpToBox
  • Uppit
| ZippyShare
HashesCRC32: D093092D, MD5: 89A70F816903D9A8E9A45A25F8E01B57, SHA1: D45359F83ABCE7D9D03B328463B829D8047D4F03, SHA256: A5C980A361158DC34FBEA08EB1C3E0F6B9C264957A7ED3281046C12AB5051909, ED2K: 53881E2DAEDC296DD22C462DBE8D8D2C
Screenshots
screenshotscreenshotscreenshotscreenshotscreenshot
SubtitlesAll Attachments | English [eng, ASS], Portuguese(Brazil) [por, ASS], Spanish [spa, ASS], Arabic [ara, ASS], French [fre, ASS], German [ger, ASS], Italian [ita, ASS], Russian [rus, ASS]
Additional Info
General
Unique ID                                : 174721018786941643470676370137881334901 (0x83720B50A99771ED2D0317DDA7915475)
Complete name                            : [Valenciano] Blue Lock - 17 [1080p][AV1 10bit][AAC][Multi-Sub] (Weekly).mkv
Format                                   : Matroska
Format version                           : Version 4
File size                                : 382 MiB
Duration                                 : 24 min 18 s
Overall bit rate                         : 2 196 kb/s
Encoded date                             : UTC 2023-02-05 05:33:10
Writing application                      : mkvmerge v73.0.0 ('25 or 6 to 4') 64-bit
Writing library                          : libebml v1.4.4 + libmatroska v1.7.1 / Lavf59.27.100
Attachments                              : arialbd.ttf / arialbi.ttf / Arial_0.ttf / ariblk_0.TTF / calibri.ttf / comicbd.ttf / comic_0.ttf / georgiab.ttf / georgiaz.ttf / georgia_0.ttf / impact_0.ttf / Tahoma_0.ttf / times_0.ttf / trebuc_0.ttf / verdana_0.ttf / AdobeArabic-Bold.otf / AdobeArabic-BoldItalic.otf / AdobeArabic-Italic.otf / AdobeArabic-Regular.otf

Video
ID                                       : 10
Format                                   : AV1
Format/Info                              : AOMedia Video 1
Format profile                           : Main@L4.0
Codec ID                                 : V_AV1
Duration                                 : 24 min 18 s
Bit rate                                 : 2 023 kb/s
Width                                    : 1 920 pixels
Height                                   : 1 080 pixels
Display aspect ratio                     : 16:9
Frame rate mode                          : Constant
Frame rate                               : 23.976 (24000/1001) FPS
Color space                              : YUV
Chroma subsampling                       : 4:2:0
Bit depth                                : 10 bits
Bits/(Pixel*Frame)                       : 0.041
Stream size                              : 352 MiB (92%)
Default                                  : Yes
Forced                                   : No
Color range                              : Limited

Audio
ID                                       : 9
Format                                   : AAC LC
Format/Info                              : Advanced Audio Codec Low Complexity
Codec ID                                 : A_AAC-2
Duration                                 : 24 min 18 s
Bit rate                                 : 128 kb/s
Channel(s)                               : 2 channels
Channel layout                           : L R
Sampling rate                            : 44.1 kHz
Frame rate                               : 43.066 FPS (1024 SPF)
Compression mode                         : Lossy
Stream size                              : 22.3 MiB (6%)
Language                                 : Japanese
Default                                  : Yes
Forced                                   : No

Text #1
ID                                       : 1
Format                                   : ASS
Codec ID                                 : S_TEXT/ASS
Codec ID/Info                            : Advanced Sub Station Alpha
Duration                                 : 23 min 56 s
Bit rate                                 : 224 b/s
Count of elements                        : 458
Compression mode                         : Lossless
Stream size                              : 39.3 KiB (0%)
Title                                    : English
Language                                 : English
Default                                  : Yes
Forced                                   : No

Text #2
ID                                       : 2
Format                                   : ASS
Codec ID                                 : S_TEXT/ASS
Codec ID/Info                            : Advanced Sub Station Alpha
Duration                                 : 23 min 56 s
Bit rate                                 : 236 b/s
Count of elements                        : 462
Compression mode                         : Lossless
Stream size                              : 41.5 KiB (0%)
Title                                    : Portuguese(Brazil)
Language                                 : Portuguese
Default                                  : No
Forced                                   : No

Text #3
ID                                       : 3
Format                                   : ASS
Codec ID                                 : S_TEXT/ASS
Codec ID/Info                            : Advanced Sub Station Alpha
Duration                                 : 23 min 56 s
Bit rate                                 : 200 b/s
Count of elements                        : 424
Compression mode                         : Lossless
Stream size                              : 35.2 KiB (0%)
Title                                    : Spanish
Language                                 : Spanish
Default                                  : No
Forced                                   : No

Text #4
ID                                       : 4
Format                                   : ASS
Codec ID                                 : S_TEXT/ASS
Codec ID/Info                            : Advanced Sub Station Alpha
Duration                                 : 23 min 56 s
Bit rate                                 : 259 b/s
Count of elements                        : 453
Compression mode                         : Lossless
Stream size                              : 45.4 KiB (0%)
Title                                    : Arabic
Language                                 : Arabic
Default                                  : No
Forced                                   : No

Text #5
ID                                       : 5
Format                                   : ASS
Codec ID                                 : S_TEXT/ASS
Codec ID/Info                            : Advanced Sub Station Alpha
Duration                                 : 23 min 56 s
Bit rate                                 : 228 b/s
Count of elements                        : 480
Compression mode                         : Lossless
Stream size                              : 40.1 KiB (0%)
Title                                    : French
Language                                 : French
Default                                  : No
Forced                                   : No

Text #6
ID                                       : 6
Format                                   : ASS
Codec ID                                 : S_TEXT/ASS
Codec ID/Info                            : Advanced Sub Station Alpha
Duration                                 : 23 min 56 s
Bit rate                                 : 211 b/s
Count of elements                        : 437
Compression mode                         : Lossless
Stream size                              : 37.0 KiB (0%)
Title                                    : German
Language                                 : German
Default                                  : No
Forced                                   : No

Text #7
ID                                       : 7
Format                                   : ASS
Codec ID                                 : S_TEXT/ASS
Codec ID/Info                            : Advanced Sub Station Alpha
Duration                                 : 23 min 56 s
Bit rate                                 : 210 b/s
Count of elements                        : 531
Compression mode                         : Lossless
Stream size                              : 36.9 KiB (0%)
Title                                    : Italian
Language                                 : Italian
Default                                  : No
Forced                                   : No

Text #8
ID                                       : 8
Format                                   : ASS
Codec ID                                 : S_TEXT/ASS
Codec ID/Info                            : Advanced Sub Station Alpha
Duration                                 : 23 min 56 s
Bit rate                                 : 342 b/s
Count of elements                        : 486
Compression mode                         : Lossless
Stream size                              : 60.1 KiB (0%)
Title                                    : Russian
Language                                 : Russian
Default                                  : No
Forced                                   : No
beta
Anime DDL+NZB mirror
Current Time: 18/06/2024 00:02



About/FAQs

Discord