[Valenciano] Blue Lock - 15 [1080p][AV1 10bit][AAC][Multi-Sub] (Weekly).mkv


File Size355.0 MB (372,195,028 bytes)
DownloadAnonFiles | ClickNUpload | DownloadGG | KrakenFiles | MultiUp
  • BdUpload
  • DownAce
  • Fichier
  • FileCloud
  • Filerio
  • FilesCdn
  • IndiShare
  • Kbagi
  • Turbobit
  • UpToBox
  • Uppit
| ZippyShare
HashesCRC32: 0A64DB28, MD5: ACF6AAE35607DBB9B3A1450A76B0BA27, SHA1: 95403D5BC452C7D6CF847C5FD2158CABC8462509, SHA256: 54BB01B58E676E6FCFC003D3D89D852C24B6656B2D7F15B832FD7F04DAFC5395, ED2K: EE83CCBDA566D08EBE5CE823A18EB392
Screenshots
screenshotscreenshotscreenshotscreenshotscreenshot
SubtitlesAll Attachments | English [eng, ASS], Portuguese(Brazil) [por, ASS], Spanish(Latin_America) [spa, ASS], Spanish [spa, ASS], Arabic [ara, ASS], French [fre, ASS], German [ger, ASS], Italian [ita, ASS], Russian [rus, ASS]
Additional Info
General
Unique ID                                : 10885573698046559333308069041922647722 (0x8307C38573547982BB98431EC8C26AA)
Complete name                            : [Valenciano] Blue Lock - 15 [1080p][AV1 10bit][AAC][Multi-Sub] (Weekly).mkv
Format                                   : Matroska
Format version                           : Version 4
File size                                : 355 MiB
Duration                                 : 23 min 38 s
Overall bit rate                         : 2 099 kb/s
Encoded date                             : UTC 2023-01-23 02:16:45
Writing application                      : mkvmerge v73.0.0 ('25 or 6 to 4') 64-bit
Writing library                          : libebml v1.4.4 + libmatroska v1.7.1 / Lavf59.27.100
Attachments                              : arialbd.ttf / arialbi.ttf / Arial_0.ttf / ariblk_0.TTF / calibri.ttf / comicbd.ttf / comic_0.ttf / georgiab.ttf / georgiaz.ttf / georgia_0.ttf / impact_0.ttf / Tahoma_0.ttf / times_0.ttf / trebuc_0.ttf / verdana_0.ttf / AdobeArabic-Bold.otf / AdobeArabic-BoldItalic.otf / AdobeArabic-Italic.otf / AdobeArabic-Regular.otf

Video
ID                                       : 11
Format                                   : AV1
Format/Info                              : AOMedia Video 1
Format profile                           : Main@L4.0
Codec ID                                 : V_AV1
Duration                                 : 23 min 38 s
Bit rate                                 : 1 923 kb/s
Width                                    : 1 920 pixels
Height                                   : 1 080 pixels
Display aspect ratio                     : 16:9
Frame rate mode                          : Constant
Frame rate                               : 23.976 (24000/1001) FPS
Color space                              : YUV
Chroma subsampling                       : 4:2:0
Bit depth                                : 10 bits
Bits/(Pixel*Frame)                       : 0.039
Stream size                              : 325 MiB (92%)
Default                                  : Yes
Forced                                   : No
Color range                              : Limited

Audio
ID                                       : 10
Format                                   : AAC LC
Format/Info                              : Advanced Audio Codec Low Complexity
Codec ID                                 : A_AAC-2
Duration                                 : 23 min 38 s
Bit rate                                 : 128 kb/s
Channel(s)                               : 2 channels
Channel layout                           : L R
Sampling rate                            : 44.1 kHz
Frame rate                               : 43.066 FPS (1024 SPF)
Compression mode                         : Lossy
Stream size                              : 21.6 MiB (6%)
Language                                 : Japanese
Default                                  : Yes
Forced                                   : No

Text #1
ID                                       : 1
Format                                   : ASS
Codec ID                                 : S_TEXT/ASS
Codec ID/Info                            : Advanced Sub Station Alpha
Duration                                 : 23 min 18 s
Bit rate                                 : 279 b/s
Count of elements                        : 468
Compression mode                         : Lossless
Stream size                              : 47.7 KiB (0%)
Title                                    : English
Language                                 : English
Default                                  : Yes
Forced                                   : No

Text #2
ID                                       : 2
Format                                   : ASS
Codec ID                                 : S_TEXT/ASS
Codec ID/Info                            : Advanced Sub Station Alpha
Duration                                 : 23 min 18 s
Bit rate                                 : 288 b/s
Count of elements                        : 468
Compression mode                         : Lossless
Stream size                              : 49.3 KiB (0%)
Title                                    : Portuguese(Brazil)
Language                                 : Portuguese
Default                                  : No
Forced                                   : No

Text #3
ID                                       : 3
Format                                   : ASS
Codec ID                                 : S_TEXT/ASS
Codec ID/Info                            : Advanced Sub Station Alpha
Duration                                 : 23 min 18 s
Bit rate                                 : 229 b/s
Count of elements                        : 421
Compression mode                         : Lossless
Stream size                              : 39.2 KiB (0%)
Title                                    : Spanish(Latin_America)
Language                                 : Spanish
Default                                  : No
Forced                                   : No

Text #4
ID                                       : 4
Format                                   : ASS
Codec ID                                 : S_TEXT/ASS
Codec ID/Info                            : Advanced Sub Station Alpha
Duration                                 : 23 min 18 s
Bit rate                                 : 229 b/s
Count of elements                        : 421
Compression mode                         : Lossless
Stream size                              : 39.2 KiB (0%)
Title                                    : Spanish
Language                                 : Spanish
Default                                  : No
Forced                                   : No

Text #5
ID                                       : 5
Format                                   : ASS
Codec ID                                 : S_TEXT/ASS
Codec ID/Info                            : Advanced Sub Station Alpha
Duration                                 : 23 min 20 s
Bit rate                                 : 274 b/s
Count of elements                        : 440
Compression mode                         : Lossless
Stream size                              : 46.9 KiB (0%)
Title                                    : Arabic
Language                                 : Arabic
Default                                  : No
Forced                                   : No

Text #6
ID                                       : 6
Format                                   : ASS
Codec ID                                 : S_TEXT/ASS
Codec ID/Info                            : Advanced Sub Station Alpha
Duration                                 : 23 min 18 s
Bit rate                                 : 1 880 b/s
Count of elements                        : 2022
Compression mode                         : Lossless
Stream size                              : 321 KiB (0%)
Title                                    : French
Language                                 : French
Default                                  : No
Forced                                   : No

Text #7
ID                                       : 7
Format                                   : ASS
Codec ID                                 : S_TEXT/ASS
Codec ID/Info                            : Advanced Sub Station Alpha
Duration                                 : 23 min 19 s
Bit rate                                 : 193 b/s
Count of elements                        : 381
Compression mode                         : Lossless
Stream size                              : 33.0 KiB (0%)
Title                                    : German
Language                                 : German
Default                                  : No
Forced                                   : No

Text #8
ID                                       : 8
Format                                   : ASS
Codec ID                                 : S_TEXT/ASS
Codec ID/Info                            : Advanced Sub Station Alpha
Duration                                 : 23 min 17 s
Bit rate                                 : 194 b/s
Count of elements                        : 459
Compression mode                         : Lossless
Stream size                              : 33.1 KiB (0%)
Title                                    : Italian
Language                                 : Italian
Default                                  : No
Forced                                   : No

Text #9
ID                                       : 9
Format                                   : ASS
Codec ID                                 : S_TEXT/ASS
Codec ID/Info                            : Advanced Sub Station Alpha
Duration                                 : 23 min 18 s
Bit rate                                 : 392 b/s
Count of elements                        : 511
Compression mode                         : Lossless
Stream size                              : 66.9 KiB (0%)
Title                                    : Russian
Language                                 : Russian
Default                                  : No
Forced                                   : No
beta
Anime DDL+NZB mirror
Current Time: 17/06/2024 23:09



About/FAQs

Discord