Uncle.from.Another.World.S01E06.So.They.Threw.Me.into.the.Basement.of.a.Freak.Show..NF.WEB-DL.AAC2.0.H.264-DucksterPS.mkv


File Size1.153 GB (1,238,226,359 bytes)
DownloadClickNUpload | GoFile | MdiaLoad
DownloadGG: Part1, Part2
KrakenFiles: Part1, Part2
MultiUp: Part1
  • BdUpload
  • DownAce
  • Fichier
  • FileCloud
  • Filerio
  • FilesCdn
  • IndiShare
  • Kbagi
  • Turbobit
  • UpToBox
  • Uppit
, Part2
  • BdUpload
  • DownAce
  • Fichier
  • FileCloud
  • Filerio
  • FilesCdn
  • IndiShare
  • Kbagi
  • Turbobit
  • UpToBox
  • Uppit
, Part3
  • BdUpload
  • DownAce
  • Fichier
  • FileCloud
  • Filerio
  • FilesCdn
  • IndiShare
  • Kbagi
  • Turbobit
  • UpToBox
  • Uppit
HashesCRC32: 59493759, MD5: E928855A8C9B851E299A72EB040FBCD0, SHA1: 1462DFCD8324D62C384CC9364641AC2D2A4F4C84, SHA256: 3B218659103EE01CC0B34DF45B840445DE56485DA9E8284B9372416D929BA822, ED2K: 77BC86407CA5611D07ACAC5A750B0B9C
Screenshots
screenshotscreenshotscreenshotscreenshotscreenshot
SubtitlesAll Attachments | Arabic [ara, SRT], Chinese (Simplified) [chi, SRT], Chinese (Traditional) [chi, SRT], Croatian [hrv, SRT], Czech [Forced] [cze, SRT], Czech [cze, SRT], Danish [dan, SRT], Dutch [dut, SRT], English [Forced] [eng, SRT], English [SDH] [eng, SRT], English [eng, SRT], English [eng, SRT], Finnish [fin, SRT], French [Forced] [fre, SRT], French [fre, SRT], German [Forced] [ger, SRT], German [ger, SRT], Greek [gre, SRT], Hebrew [heb, SRT], Hungarian [Forced] [hun, SRT], Hungarian [hun, SRT], Indonesian [ind, SRT], Italian [Forced] [ita, SRT], Italian [ita, SRT], Japanese [Forced] [jpn, SRT], Japanese [SDH] [jpn, SRT], Korean [kor, SRT], Malay [may, SRT], Norwegian Bokmål [nob, SRT], Polish [Forced] [pol, SRT], Polish [pol, SRT], Portuguese (Brazil) [Forced] [por, SRT], Portuguese (Brazil) [por, SRT], Portuguese [por, SRT], Romanian [rum, SRT], Russian [rus, SRT], Spanish (Latin America) [Forced] [spa, SRT], Spanish (Latin America) [spa, SRT], Spanish (Spain) [Forced] [spa, SRT], Spanish (Spain) [spa, SRT], Swedish [swe, SRT], Thai [Forced] [tha, SRT], Thai [tha, SRT], Turkish [Forced] [tur, SRT], Turkish [tur, SRT], Ukrainian [ukr, SRT], Vietnamese [vie, SRT]
Additional Info
General
Unique ID                                : 39388173539737053972072013821180935852 (0x1DA1E2E3BCA8A71451E87A8536387EAC)
Complete name                            : Uncle.from.Another.World.S01E06.So.They.Threw.Me.into.the.Basement.of.a.Freak.Show..NF.WEB-DL.AAC2.0.H.264-DucksterPS.mkv
Format                                   : Matroska
Format version                           : Version 4
File size                                : 1.15 GiB
Duration                                 : 25 min 12 s
Overall bit rate mode                    : Variable
Overall bit rate                         : 6 551 kb/s
Encoded date                             : UTC 2023-03-30 22:11:51
Writing application                      : mkvmerge v33.1.0 ('Primrose') 64-bit
Writing library                          : libebml v1.3.7 + libmatroska v1.5.0

Video
ID                                       : 1
Format                                   : AVC
Format/Info                              : Advanced Video Codec
Format profile                           : Main@L4
Format settings                          : CABAC / 3 Ref Frames
Format settings, CABAC                   : Yes
Format settings, Reference frames        : 3 frames
Codec ID                                 : V_MPEG4/ISO/AVC
Duration                                 : 25 min 12 s
Bit rate mode                            : Variable
Bit rate                                 : 4 747 kb/s
Nominal bit rate                         : 5 000 kb/s
Maximum bit rate                         : 7 500 kb/s
Width                                    : 1 920 pixels
Height                                   : 1 080 pixels
Display aspect ratio                     : 16:9
Frame rate mode                          : Constant
Frame rate                               : 23.976 (24000/1001) FPS
Color space                              : YUV
Chroma subsampling                       : 4:2:0
Bit depth                                : 8 bits
Scan type                                : Progressive
Bits/(Pixel*Frame)                       : 0.095
Stream size                              : 856 MiB (72%)
Writing library                          : x264 core 148 r2727 7d026e8
Encoding settings                        : cabac=1 / ref=3 / deblock=1:0:0 / analyse=0x1:0x111 / me=umh / subme=10 / psy=1 / psy_rd=1.00:0.00 / mixed_ref=1 / me_range=24 / chroma_me=1 / trellis=2 / 8x8dct=0 / cqm=0 / deadzone=21,11 / fast_pskip=1 / chroma_qp_offset=-2 / threads=8 / lookahead_threads=1 / sliced_threads=0 / nr=0 / decimate=1 / interlaced=0 / bluray_compat=0 / stitchable=1 / constrained_intra=0 / bframes=2 / b_pyramid=0 / b_adapt=2 / b_bias=0 / direct=3 / weightb=1 / open_gop=0 / weightp=2 / keyint=48 / keyint_min=25 / scenecut=0 / intra_refresh=0 / rc_lookahead=48 / rc=2pass / mbtree=1 / bitrate=5000 / ratetol=1.0 / qcomp=0.50 / qpmin=6 / qpmax=51 / qpstep=4 / cplxblur=20.0 / qblur=0.5 / vbv_maxrate=7500 / vbv_bufsize=10000 / nal_hrd=vbr / filler=0 / ip_ratio=1.40 / aq=1:1.00
Default                                  : Yes
Forced                                   : No

Audio #1
ID                                       : 2
Format                                   : AAC LC SBR
Format/Info                              : Advanced Audio Codec Low Complexity with Spectral Band Replication
Commercial name                          : HE-AAC
Format settings                          : Explicit
Codec ID                                 : A_AAC-2
Duration                                 : 25 min 12 s
Bit rate                                 : 128 kb/s
Channel(s)                               : 2 channels
Channel layout                           : L R
Sampling rate                            : 48.0 kHz
Frame rate                               : 23.438 FPS (2048 SPF)
Compression mode                         : Lossy
Stream size                              : 23.1 MiB (2%)
Title                                    : Czech
Language                                 : Czech
Default                                  : No
Forced                                   : No

Audio #2
ID                                       : 3
Format                                   : AAC LC SBR
Format/Info                              : Advanced Audio Codec Low Complexity with Spectral Band Replication
Commercial name                          : HE-AAC
Format settings                          : Explicit
Codec ID                                 : A_AAC-2
Duration                                 : 25 min 12 s
Bit rate                                 : 128 kb/s
Channel(s)                               : 2 channels
Channel layout                           : L R
Sampling rate                            : 48.0 kHz
Frame rate                               : 23.438 FPS (2048 SPF)
Compression mode                         : Lossy
Stream size                              : 23.1 MiB (2%)
Title                                    : English
Language                                 : English
Default                                  : No
Forced                                   : No

Audio #3
ID                                       : 4
Format                                   : AAC LC SBR
Format/Info                              : Advanced Audio Codec Low Complexity with Spectral Band Replication
Commercial name                          : HE-AAC
Format settings                          : Explicit
Codec ID                                 : A_AAC-2
Duration                                 : 25 min 12 s
Bit rate                                 : 128 kb/s
Channel(s)                               : 2 channels
Channel layout                           : L R
Sampling rate                            : 48.0 kHz
Frame rate                               : 23.438 FPS (2048 SPF)
Compression mode                         : Lossy
Stream size                              : 23.1 MiB (2%)
Title                                    : French
Language                                 : French
Default                                  : No
Forced                                   : No

Audio #4
ID                                       : 5
Format                                   : AAC LC SBR
Format/Info                              : Advanced Audio Codec Low Complexity with Spectral Band Replication
Commercial name                          : HE-AAC
Format settings                          : Explicit
Codec ID                                 : A_AAC-2
Duration                                 : 25 min 12 s
Bit rate                                 : 128 kb/s
Channel(s)                               : 2 channels
Channel layout                           : L R
Sampling rate                            : 48.0 kHz
Frame rate                               : 23.438 FPS (2048 SPF)
Compression mode                         : Lossy
Stream size                              : 23.1 MiB (2%)
Title                                    : German
Language                                 : German
Default                                  : No
Forced                                   : No

Audio #5
ID                                       : 6
Format                                   : AAC LC SBR
Format/Info                              : Advanced Audio Codec Low Complexity with Spectral Band Replication
Commercial name                          : HE-AAC
Format settings                          : Explicit
Codec ID                                 : A_AAC-2
Duration                                 : 25 min 12 s
Bit rate                                 : 128 kb/s
Channel(s)                               : 2 channels
Channel layout                           : L R
Sampling rate                            : 48.0 kHz
Frame rate                               : 23.438 FPS (2048 SPF)
Compression mode                         : Lossy
Stream size                              : 23.1 MiB (2%)
Title                                    : Hungarian
Language                                 : Hungarian
Default                                  : No
Forced                                   : No

Audio #6
ID                                       : 7
Format                                   : AAC LC SBR
Format/Info                              : Advanced Audio Codec Low Complexity with Spectral Band Replication
Commercial name                          : HE-AAC
Format settings                          : Explicit
Codec ID                                 : A_AAC-2
Duration                                 : 25 min 12 s
Bit rate                                 : 128 kb/s
Channel(s)                               : 2 channels
Channel layout                           : L R
Sampling rate                            : 48.0 kHz
Frame rate                               : 23.438 FPS (2048 SPF)
Compression mode                         : Lossy
Stream size                              : 23.1 MiB (2%)
Title                                    : Italian
Language                                 : Italian
Default                                  : No
Forced                                   : No

Audio #7
ID                                       : 8
Format                                   : AAC LC SBR
Format/Info                              : Advanced Audio Codec Low Complexity with Spectral Band Replication
Commercial name                          : HE-AAC
Format settings                          : Explicit
Codec ID                                 : A_AAC-2
Duration                                 : 25 min 12 s
Bit rate                                 : 128 kb/s
Channel(s)                               : 2 channels
Channel layout                           : L R
Sampling rate                            : 48.0 kHz
Frame rate                               : 23.438 FPS (2048 SPF)
Compression mode                         : Lossy
Stream size                              : 23.1 MiB (2%)
Title                                    : Japanese
Language                                 : Japanese
Default                                  : No
Forced                                   : No

Audio #8
ID                                       : 9
Format                                   : AAC LC SBR
Format/Info                              : Advanced Audio Codec Low Complexity with Spectral Band Replication
Commercial name                          : HE-AAC
Format settings                          : Explicit
Codec ID                                 : A_AAC-2
Duration                                 : 25 min 12 s
Bit rate                                 : 128 kb/s
Channel(s)                               : 2 channels
Channel layout                           : L R
Sampling rate                            : 48.0 kHz
Frame rate                               : 23.438 FPS (2048 SPF)
Compression mode                         : Lossy
Stream size                              : 23.1 MiB (2%)
Title                                    : Japanese [Audio Description]
Language                                 : Japanese
Default                                  : No
Forced                                   : No

Audio #9
ID                                       : 10
Format                                   : AAC LC SBR
Format/Info                              : Advanced Audio Codec Low Complexity with Spectral Band Replication
Commercial name                          : HE-AAC
Format settings                          : Explicit
Codec ID                                 : A_AAC-2
Duration                                 : 25 min 12 s
Bit rate                                 : 128 kb/s
Channel(s)                               : 2 channels
Channel layout                           : L R
Sampling rate                            : 48.0 kHz
Frame rate                               : 23.438 FPS (2048 SPF)
Compression mode                         : Lossy
Stream size                              : 23.1 MiB (2%)
Title                                    : Polish
Language                                 : Polish
Default                                  : No
Forced                                   : No

Audio #10
ID                                       : 11
Format                                   : AAC LC SBR
Format/Info                              : Advanced Audio Codec Low Complexity with Spectral Band Replication
Commercial name                          : HE-AAC
Format settings                          : Explicit
Codec ID                                 : A_AAC-2
Duration                                 : 25 min 12 s
Bit rate                                 : 128 kb/s
Channel(s)                               : 2 channels
Channel layout                           : L R
Sampling rate                            : 48.0 kHz
Frame rate                               : 23.438 FPS (2048 SPF)
Compression mode                         : Lossy
Stream size                              : 23.1 MiB (2%)
Title                                    : Portuguese (Brazil)
Language                                 : Portuguese
Default                                  : No
Forced                                   : No

Audio #11
ID                                       : 12
Format                                   : AAC LC SBR
Format/Info                              : Advanced Audio Codec Low Complexity with Spectral Band Replication
Commercial name                          : HE-AAC
Format settings                          : Explicit
Codec ID                                 : A_AAC-2
Duration                                 : 25 min 12 s
Bit rate                                 : 128 kb/s
Channel(s)                               : 2 channels
Channel layout                           : L R
Sampling rate                            : 48.0 kHz
Frame rate                               : 23.438 FPS (2048 SPF)
Compression mode                         : Lossy
Stream size                              : 23.1 MiB (2%)
Title                                    : Spanish (Latin America)
Language                                 : Spanish
Default                                  : No
Forced                                   : No

Audio #12
ID                                       : 13
Format                                   : AAC LC SBR
Format/Info                              : Advanced Audio Codec Low Complexity with Spectral Band Replication
Commercial name                          : HE-AAC
Format settings                          : Explicit
Codec ID                                 : A_AAC-2
Duration                                 : 25 min 12 s
Bit rate                                 : 128 kb/s
Channel(s)                               : 2 channels
Channel layout                           : L R
Sampling rate                            : 48.0 kHz
Frame rate                               : 23.438 FPS (2048 SPF)
Compression mode                         : Lossy
Stream size                              : 23.1 MiB (2%)
Title                                    : Spanish (Spain)
Language                                 : Spanish
Default                                  : No
Forced                                   : No

Audio #13
ID                                       : 14
Format                                   : AAC LC SBR
Format/Info                              : Advanced Audio Codec Low Complexity with Spectral Band Replication
Commercial name                          : HE-AAC
Format settings                          : Explicit
Codec ID                                 : A_AAC-2
Duration                                 : 25 min 12 s
Bit rate                                 : 128 kb/s
Channel(s)                               : 2 channels
Channel layout                           : L R
Sampling rate                            : 48.0 kHz
Frame rate                               : 23.438 FPS (2048 SPF)
Compression mode                         : Lossy
Stream size                              : 23.1 MiB (2%)
Title                                    : Thai
Language                                 : Thai
Default                                  : No
Forced                                   : No

Audio #14
ID                                       : 15
Format                                   : AAC LC SBR
Format/Info                              : Advanced Audio Codec Low Complexity with Spectral Band Replication
Commercial name                          : HE-AAC
Format settings                          : Explicit
Codec ID                                 : A_AAC-2
Duration                                 : 25 min 12 s
Bit rate                                 : 128 kb/s
Channel(s)                               : 2 channels
Channel layout                           : L R
Sampling rate                            : 48.0 kHz
Frame rate                               : 23.438 FPS (2048 SPF)
Compression mode                         : Lossy
Stream size                              : 23.1 MiB (2%)
Title                                    : Turkish
Language                                 : Turkish
Default                                  : No
Forced                                   : No

Text #1
ID                                       : 16
Format                                   : UTF-8
Codec ID                                 : S_TEXT/UTF8
Codec ID/Info                            : UTF-8 Plain Text
Duration                                 : 23 min 43 s
Bit rate                                 : 87 b/s
Count of elements                        : 323
Stream size                              : 15.3 KiB (0%)
Title                                    : Arabic
Language                                 : Arabic
Default                                  : No
Forced                                   : No

Text #2
ID                                       : 17
Format                                   : UTF-8
Codec ID                                 : S_TEXT/UTF8
Codec ID/Info                            : UTF-8 Plain Text
Duration                                 : 23 min 43 s
Bit rate                                 : 52 b/s
Count of elements                        : 333
Stream size                              : 9.10 KiB (0%)
Title                                    : Chinese (Simplified)
Language                                 : Chinese
Default                                  : No
Forced                                   : No

Text #3
ID                                       : 18
Format                                   : UTF-8
Codec ID                                 : S_TEXT/UTF8
Codec ID/Info                            : UTF-8 Plain Text
Duration                                 : 23 min 43 s
Bit rate                                 : 56 b/s
Count of elements                        : 335
Stream size                              : 9.89 KiB (0%)
Title                                    : Chinese (Traditional)
Language                                 : Chinese
Default                                  : No
Forced                                   : No

Text #4
ID                                       : 19
Format                                   : UTF-8
Codec ID                                 : S_TEXT/UTF8
Codec ID/Info                            : UTF-8 Plain Text
Duration                                 : 23 min 43 s
Bit rate                                 : 61 b/s
Count of elements                        : 323
Stream size                              : 10.7 KiB (0%)
Title                                    : Croatian
Language                                 : Croatian
Default                                  : No
Forced                                   : No

Text #5
ID                                       : 20
Format                                   : UTF-8
Codec ID                                 : S_TEXT/UTF8
Codec ID/Info                            : UTF-8 Plain Text
Duration                                 : 23 min 43 s
Bit rate                                 : 1 b/s
Count of elements                        : 11
Stream size                              : 212 Bytes (0%)
Title                                    : Czech [Forced]
Language                                 : Czech
Default                                  : No
Forced                                   : Yes

Text #6
ID                                       : 21
Format                                   : UTF-8
Codec ID                                 : S_TEXT/UTF8
Codec ID/Info                            : UTF-8 Plain Text
Duration                                 : 23 min 43 s
Bit rate                                 : 61 b/s
Count of elements                        : 313
Stream size                              : 10.6 KiB (0%)
Title                                    : Czech
Language                                 : Czech
Default                                  : No
Forced                                   : No

Text #7
ID                                       : 22
Format                                   : UTF-8
Codec ID                                 : S_TEXT/UTF8
Codec ID/Info                            : UTF-8 Plain Text
Duration                                 : 23 min 43 s
Bit rate                                 : 58 b/s
Count of elements                        : 320
Stream size                              : 10.2 KiB (0%)
Title                                    : Danish
Language                                 : Danish
Default                                  : No
Forced                                   : No

Text #8
ID                                       : 23
Format                                   : UTF-8
Codec ID                                 : S_TEXT/UTF8
Codec ID/Info                            : UTF-8 Plain Text
Duration                                 : 23 min 43 s
Bit rate                                 : 58 b/s
Count of elements                        : 286
Stream size                              : 10.2 KiB (0%)
Title                                    : Dutch
Language                                 : Dutch
Default                                  : No
Forced                                   : No

Text #9
ID                                       : 24
Format                                   : UTF-8
Codec ID                                 : S_TEXT/UTF8
Codec ID/Info                            : UTF-8 Plain Text
Duration                                 : 22 min 7 s
Bit rate                                 : 1 b/s
Count of elements                        : 11
Stream size                              : 203 Bytes (0%)
Title                                    : English [Forced]
Language                                 : English
Default                                  : No
Forced                                   : Yes

Text #10
ID                                       : 25
Format                                   : UTF-8
Codec ID                                 : S_TEXT/UTF8
Codec ID/Info                            : UTF-8 Plain Text
Duration                                 : 22 min 9 s
Bit rate                                 : 82 b/s
Count of elements                        : 406
Stream size                              : 13.3 KiB (0%)
Title                                    : English [SDH]
Language                                 : English
Default                                  : No
Forced                                   : No

Text #11
ID                                       : 26
Format                                   : UTF-8
Codec ID                                 : S_TEXT/UTF8
Codec ID/Info                            : UTF-8 Plain Text
Duration                                 : 22 min 5 s
Bit rate                                 : 70 b/s
Count of elements                        : 346
Stream size                              : 11.5 KiB (0%)
Title                                    : English
Language                                 : English
Default                                  : No
Forced                                   : No

Text #12
ID                                       : 27
Format                                   : UTF-8
Codec ID                                 : S_TEXT/UTF8
Codec ID/Info                            : UTF-8 Plain Text
Duration                                 : 23 min 37 s
Bit rate                                 : 62 b/s
Count of elements                        : 316
Stream size                              : 10.8 KiB (0%)
Title                                    : English
Language                                 : English
Default                                  : No
Forced                                   : No

Text #13
ID                                       : 28
Format                                   : UTF-8
Codec ID                                 : S_TEXT/UTF8
Codec ID/Info                            : UTF-8 Plain Text
Duration                                 : 23 min 43 s
Bit rate                                 : 63 b/s
Count of elements                        : 321
Stream size                              : 11.0 KiB (0%)
Title                                    : Finnish
Language                                 : Finnish
Default                                  : No
Forced                                   : No

Text #14
ID                                       : 29
Format                                   : UTF-8
Codec ID                                 : S_TEXT/UTF8
Codec ID/Info                            : UTF-8 Plain Text
Duration                                 : 23 min 43 s
Bit rate                                 : 0 b/s
Count of elements                        : 3
Stream size                              : 68.0 Bytes (0%)
Title                                    : French [Forced]
Language                                 : French
Default                                  : No
Forced                                   : Yes

Text #15
ID                                       : 30
Format                                   : UTF-8
Codec ID                                 : S_TEXT/UTF8
Codec ID/Info                            : UTF-8 Plain Text
Duration                                 : 23 min 43 s
Bit rate                                 : 62 b/s
Count of elements                        : 315
Stream size                              : 10.9 KiB (0%)
Title                                    : French
Language                                 : French
Default                                  : No
Forced                                   : No

Text #16
ID                                       : 31
Format                                   : UTF-8
Codec ID                                 : S_TEXT/UTF8
Codec ID/Info                            : UTF-8 Plain Text
Duration                                 : 23 min 43 s
Bit rate                                 : 1 b/s
Count of elements                        : 9
Stream size                              : 181 Bytes (0%)
Title                                    : German [Forced]
Language                                 : German
Default                                  : No
Forced                                   : Yes

Text #17
ID                                       : 32
Format                                   : UTF-8
Codec ID                                 : S_TEXT/UTF8
Codec ID/Info                            : UTF-8 Plain Text
Duration                                 : 23 min 43 s
Bit rate                                 : 60 b/s
Count of elements                        : 308
Stream size                              : 10.5 KiB (0%)
Title                                    : German
Language                                 : German
Default                                  : No
Forced                                   : No

Text #18
ID                                       : 33
Format                                   : UTF-8
Codec ID                                 : S_TEXT/UTF8
Codec ID/Info                            : UTF-8 Plain Text
Duration                                 : 23 min 43 s
Bit rate                                 : 104 b/s
Count of elements                        : 321
Stream size                              : 18.1 KiB (0%)
Title                                    : Greek
Language                                 : Greek
Default                                  : No
Forced                                   : No

Text #19
ID                                       : 34
Format                                   : UTF-8
Codec ID                                 : S_TEXT/UTF8
Codec ID/Info                            : UTF-8 Plain Text
Duration                                 : 23 min 43 s
Bit rate                                 : 77 b/s
Count of elements                        : 323
Stream size                              : 13.4 KiB (0%)
Title                                    : Hebrew
Language                                 : Hebrew
Default                                  : No
Forced                                   : No

Text #20
ID                                       : 35
Format                                   : UTF-8
Codec ID                                 : S_TEXT/UTF8
Codec ID/Info                            : UTF-8 Plain Text
Duration                                 : 23 min 43 s
Bit rate                                 : 1 b/s
Count of elements                        : 11
Stream size                              : 212 Bytes (0%)
Title                                    : Hungarian [Forced]
Language                                 : Hungarian
Default                                  : No
Forced                                   : Yes

Text #21
ID                                       : 36
Format                                   : UTF-8
Codec ID                                 : S_TEXT/UTF8
Codec ID/Info                            : UTF-8 Plain Text
Duration                                 : 23 min 43 s
Bit rate                                 : 65 b/s
Count of elements                        : 316
Stream size                              : 11.3 KiB (0%)
Title                                    : Hungarian
Language                                 : Hungarian
Default                                  : No
Forced                                   : No

Text #22
ID                                       : 37
Format                                   : UTF-8
Codec ID                                 : S_TEXT/UTF8
Codec ID/Info                            : UTF-8 Plain Text
Duration                                 : 23 min 43 s
Bit rate                                 : 63 b/s
Count of elements                        : 331
Stream size                              : 11.0 KiB (0%)
Title                                    : Indonesian
Language                                 : Indonesian
Default                                  : No
Forced                                   : No

Text #23
ID                                       : 38
Format                                   : UTF-8
Codec ID                                 : S_TEXT/UTF8
Codec ID/Info                            : UTF-8 Plain Text
Duration                                 : 23 min 43 s
Bit rate                                 : 1 b/s
Count of elements                        : 11
Stream size                              : 203 Bytes (0%)
Title                                    : Italian [Forced]
Language                                 : Italian
Default                                  : No
Forced                                   : Yes

Text #24
ID                                       : 39
Format                                   : UTF-8
Codec ID                                 : S_TEXT/UTF8
Codec ID/Info                            : UTF-8 Plain Text
Duration                                 : 23 min 43 s
Bit rate                                 : 64 b/s
Count of elements                        : 319
Stream size                              : 11.2 KiB (0%)
Title                                    : Italian
Language                                 : Italian
Default                                  : No
Forced                                   : No

Text #25
ID                                       : 40
Format                                   : UTF-8
Codec ID                                 : S_TEXT/UTF8
Codec ID/Info                            : UTF-8 Plain Text
Duration                                 : 2 s 502 ms
Bit rate                                 : 159 b/s
Count of elements                        : 1
Stream size                              : 50.0 Bytes (0%)
Title                                    : Japanese [Forced]
Language                                 : Japanese
Default                                  : No
Forced                                   : Yes

Text #26
ID                                       : 41
Format                                   : UTF-8
Codec ID                                 : S_TEXT/UTF8
Codec ID/Info                            : UTF-8 Plain Text
Duration                                 : 23 min 43 s
Bit rate                                 : 165 b/s
Count of elements                        : 441
Stream size                              : 28.8 KiB (0%)
Title                                    : Japanese [SDH]
Language                                 : Japanese
Default                                  : No
Forced                                   : No

Text #27
ID                                       : 42
Format                                   : UTF-8
Codec ID                                 : S_TEXT/UTF8
Codec ID/Info                            : UTF-8 Plain Text
Duration                                 : 23 min 43 s
Bit rate                                 : 64 b/s
Count of elements                        : 318
Stream size                              : 11.2 KiB (0%)
Title                                    : Korean
Language                                 : Korean
Default                                  : No
Forced                                   : No

Text #28
ID                                       : 43
Format                                   : UTF-8
Codec ID                                 : S_TEXT/UTF8
Codec ID/Info                            : UTF-8 Plain Text
Duration                                 : 23 min 41 s
Bit rate                                 : 64 b/s
Count of elements                        : 334
Stream size                              : 11.1 KiB (0%)
Title                                    : Malay
Language                                 : Malay
Default                                  : No
Forced                                   : No

Text #29
ID                                       : 44
Format                                   : UTF-8
Codec ID                                 : S_TEXT/UTF8
Codec ID/Info                            : UTF-8 Plain Text
Duration                                 : 23 min 43 s
Bit rate                                 : 56 b/s
Count of elements                        : 310
Stream size                              : 9.75 KiB (0%)
Title                                    : Norwegian Bokmål
Language                                 : Norwegian Bokmal
Default                                  : No
Forced                                   : No

Text #30
ID                                       : 45
Format                                   : UTF-8
Codec ID                                 : S_TEXT/UTF8
Codec ID/Info                            : UTF-8 Plain Text
Duration                                 : 23 min 43 s
Bit rate                                 : 1 b/s
Count of elements                        : 10
Stream size                              : 210 Bytes (0%)
Title                                    : Polish [Forced]
Language                                 : Polish
Default                                  : No
Forced                                   : Yes

Text #31
ID                                       : 46
Format                                   : UTF-8
Codec ID                                 : S_TEXT/UTF8
Codec ID/Info                            : UTF-8 Plain Text
Duration                                 : 23 min 43 s
Bit rate                                 : 61 b/s
Count of elements                        : 321
Stream size                              : 10.7 KiB (0%)
Title                                    : Polish
Language                                 : Polish
Default                                  : No
Forced                                   : No

Text #32
ID                                       : 47
Format                                   : UTF-8
Codec ID                                 : S_TEXT/UTF8
Codec ID/Info                            : UTF-8 Plain Text
Duration                                 : 23 min 43 s
Bit rate                                 : 1 b/s
Count of elements                        : 11
Stream size                              : 193 Bytes (0%)
Title                                    : Portuguese (Brazil) [Forced]
Language                                 : Portuguese
Default                                  : No
Forced                                   : Yes

Text #33
ID                                       : 48
Format                                   : UTF-8
Codec ID                                 : S_TEXT/UTF8
Codec ID/Info                            : UTF-8 Plain Text
Duration                                 : 23 min 43 s
Bit rate                                 : 61 b/s
Count of elements                        : 323
Stream size                              : 10.8 KiB (0%)
Title                                    : Portuguese (Brazil)
Language                                 : Portuguese
Default                                  : No
Forced                                   : No

Text #34
ID                                       : 49
Format                                   : UTF-8
Codec ID                                 : S_TEXT/UTF8
Codec ID/Info                            : UTF-8 Plain Text
Duration                                 : 23 min 43 s
Bit rate                                 : 62 b/s
Count of elements                        : 322
Stream size                              : 10.8 KiB (0%)
Title                                    : Portuguese
Language                                 : Portuguese
Default                                  : No
Forced                                   : No

Text #35
ID                                       : 50
Format                                   : UTF-8
Codec ID                                 : S_TEXT/UTF8
Codec ID/Info                            : UTF-8 Plain Text
Duration                                 : 23 min 43 s
Bit rate                                 : 62 b/s
Count of elements                        : 273
Stream size                              : 10.8 KiB (0%)
Title                                    : Romanian
Language                                 : Romanian
Default                                  : No
Forced                                   : No

Text #36
ID                                       : 51
Format                                   : UTF-8
Codec ID                                 : S_TEXT/UTF8
Codec ID/Info                            : UTF-8 Plain Text
Duration                                 : 23 min 43 s
Bit rate                                 : 99 b/s
Count of elements                        : 323
Stream size                              : 17.3 KiB (0%)
Title                                    : Russian
Language                                 : Russian
Default                                  : No
Forced                                   : No

Text #37
ID                                       : 52
Format                                   : UTF-8
Codec ID                                 : S_TEXT/UTF8
Codec ID/Info                            : UTF-8 Plain Text
Duration                                 : 23 min 43 s
Bit rate                                 : 1 b/s
Count of elements                        : 11
Stream size                              : 205 Bytes (0%)
Title                                    : Spanish (Latin America) [Forced]
Language                                 : Spanish
Default                                  : No
Forced                                   : Yes

Text #38
ID                                       : 53
Format                                   : UTF-8
Codec ID                                 : S_TEXT/UTF8
Codec ID/Info                            : UTF-8 Plain Text
Duration                                 : 23 min 43 s
Bit rate                                 : 58 b/s
Count of elements                        : 323
Stream size                              : 10.2 KiB (0%)
Title                                    : Spanish (Latin America)
Language                                 : Spanish
Default                                  : No
Forced                                   : No

Text #39
ID                                       : 54
Format                                   : UTF-8
Codec ID                                 : S_TEXT/UTF8
Codec ID/Info                            : UTF-8 Plain Text
Duration                                 : 23 min 43 s
Bit rate                                 : 1 b/s
Count of elements                        : 11
Stream size                              : 186 Bytes (0%)
Title                                    : Spanish (Spain) [Forced]
Language                                 : Spanish
Default                                  : No
Forced                                   : Yes

Text #40
ID                                       : 55
Format                                   : UTF-8
Codec ID                                 : S_TEXT/UTF8
Codec ID/Info                            : UTF-8 Plain Text
Duration                                 : 23 min 43 s
Bit rate                                 : 56 b/s
Count of elements                        : 313
Stream size                              : 9.87 KiB (0%)
Title                                    : Spanish (Spain)
Language                                 : Spanish
Default                                  : No
Forced                                   : No

Text #41
ID                                       : 56
Format                                   : UTF-8
Codec ID                                 : S_TEXT/UTF8
Codec ID/Info                            : UTF-8 Plain Text
Duration                                 : 23 min 43 s
Bit rate                                 : 63 b/s
Count of elements                        : 323
Stream size                              : 11.0 KiB (0%)
Title                                    : Swedish
Language                                 : Swedish
Default                                  : No
Forced                                   : No

Text #42
ID                                       : 57
Format                                   : UTF-8
Codec ID                                 : S_TEXT/UTF8
Codec ID/Info                            : UTF-8 Plain Text
Duration                                 : 23 min 43 s
Bit rate                                 : 3 b/s
Count of elements                        : 12
Stream size                              : 598 Bytes (0%)
Title                                    : Thai [Forced]
Language                                 : Thai
Default                                  : No
Forced                                   : Yes

Text #43
ID                                       : 58
Format                                   : UTF-8
Codec ID                                 : S_TEXT/UTF8
Codec ID/Info                            : UTF-8 Plain Text
Duration                                 : 23 min 43 s
Bit rate                                 : 162 b/s
Count of elements                        : 338
Stream size                              : 28.2 KiB (0%)
Title                                    : Thai
Language                                 : Thai
Default                                  : No
Forced                                   : No

Text #44
ID                                       : 59
Format                                   : UTF-8
Codec ID                                 : S_TEXT/UTF8
Codec ID/Info                            : UTF-8 Plain Text
Duration                                 : 23 min 43 s
Bit rate                                 : 1 b/s
Count of elements                        : 11
Stream size                              : 213 Bytes (0%)
Title                                    : Turkish [Forced]
Language                                 : Turkish
Default                                  : No
Forced                                   : Yes

Text #45
ID                                       : 60
Format                                   : UTF-8
Codec ID                                 : S_TEXT/UTF8
Codec ID/Info                            : UTF-8 Plain Text
Duration                                 : 23 min 43 s
Bit rate                                 : 65 b/s
Count of elements                        : 323
Stream size                              : 11.4 KiB (0%)
Title                                    : Turkish
Language                                 : Turkish
Default                                  : No
Forced                                   : No

Text #46
ID                                       : 61
Format                                   : UTF-8
Codec ID                                 : S_TEXT/UTF8
Codec ID/Info                            : UTF-8 Plain Text
Duration                                 : 23 min 43 s
Bit rate                                 : 98 b/s
Count of elements                        : 319
Stream size                              : 17.1 KiB (0%)
Title                                    : Ukrainian
Language                                 : Ukrainian
Default                                  : No
Forced                                   : No

Text #47
ID                                       : 62
Format                                   : UTF-8
Codec ID                                 : S_TEXT/UTF8
Codec ID/Info                            : UTF-8 Plain Text
Duration                                 : 23 min 43 s
Bit rate                                 : 76 b/s
Count of elements                        : 320
Stream size                              : 13.3 KiB (0%)
Title                                    : Vietnamese
Language                                 : Vietnamese
Default                                  : No
Forced                                   : No

Menu
00:00:00.000                             : en:Part 1
00:01:02.583                             : en:Intro
00:02:30.004                             : en:Part 2
00:22:22.000                             : en:Credits

Other Files in this Torrent
Uncle.from.Another.World.S01E06.So.They.Threw.Me.into.the.Basement.of.a.Freak.Show..NF.WEB-DL.AAC2.0.H.264-DucksterPS.mkv
beta
Anime DDL+NZB mirror
Current Time: 14/07/2024 19:22



About/FAQs

Discord