Uncle.from.Another.World.S01E01.Im.Finally.Back.From.the.Fantasy.World.of.Granbahamal.After.17.Long.Years.NF.WEB-DL.AAC2.0.H.264-DucksterPS.mkv


File Size0.982 GB (1,054,049,913 bytes)
DownloadClickNUpload | DownloadGG | GoFile | KrakenFiles | MdiaLoad
MultiUp: Part1
  • BdUpload
  • DownAce
  • Fichier
  • FileCloud
  • Filerio
  • FilesCdn
  • IndiShare
  • Kbagi
  • Turbobit
  • UpToBox
  • Uppit
, Part2
  • BdUpload
  • DownAce
  • Fichier
  • FileCloud
  • Filerio
  • FilesCdn
  • IndiShare
  • Kbagi
  • Turbobit
  • UpToBox
  • Uppit
, Part3
  • BdUpload
  • DownAce
  • Fichier
  • FileCloud
  • Filerio
  • FilesCdn
  • IndiShare
  • Kbagi
  • Turbobit
  • UpToBox
  • Uppit
HashesCRC32: 3F275EB2, MD5: A31831DB9B38CF97FBF2C4792EC5B006, SHA1: 05CFD817C2E71C5D8DFB02DC7C02667C81C4181D, SHA256: F9BF2844D7904E217504E8E3C86326A4816CD4CA71F4DC18D72B9AEA44A3D995, ED2K: 982CE07F93D6747D631FEE81E51B4D13
Screenshots
screenshotscreenshotscreenshotscreenshotscreenshot
SubtitlesAll Attachments | Arabic [ara, SRT], Chinese (Simplified) [chi, SRT], Chinese (Traditional) [chi, SRT], Croatian [hrv, SRT], Czech [Forced] [cze, SRT], Czech [cze, SRT], Danish [dan, SRT], Dutch [dut, SRT], English [Forced] [eng, SRT], English [SDH] [eng, SRT], English [eng, SRT], English [eng, SRT], Finnish [fin, SRT], French [Forced] [fre, SRT], French [fre, SRT], German [Forced] [ger, SRT], German [ger, SRT], Greek [gre, SRT], Hebrew [heb, SRT], Hungarian [Forced] [hun, SRT], Hungarian [hun, SRT], Indonesian [ind, SRT], Italian [Forced] [ita, SRT], Italian [ita, SRT], Japanese [Forced] [jpn, SRT], Japanese [SDH] [jpn, SRT], Korean [kor, SRT], Malay [may, SRT], Norwegian Bokmål [nob, SRT], Polish [Forced] [pol, SRT], Polish [pol, SRT], Portuguese (Brazil) [Forced] [por, SRT], Portuguese (Brazil) [por, SRT], Portuguese [por, SRT], Romanian [rum, SRT], Russian [rus, SRT], Spanish (Latin America) [Forced] [spa, SRT], Spanish (Latin America) [spa, SRT], Spanish (Spain) [Forced] [spa, SRT], Spanish (Spain) [spa, SRT], Swedish [swe, SRT], Thai [Forced] [tha, SRT], Thai [tha, SRT], Turkish [Forced] [tur, SRT], Turkish [tur, SRT], Ukrainian [ukr, SRT], Vietnamese [vie, SRT]
Additional Info
General
Unique ID                                : 286881865310227099902816673936577507032 (0xD7D36FFF5CA4D5529DF03F66243DAED8)
Complete name                            : Uncle.from.Another.World.S01E01.Im.Finally.Back.From.the.Fantasy.World.of.Granbahamal.After.17.Long.Years.NF.WEB-DL.AAC2.0.H.264-DucksterPS.mkv
Format                                   : Matroska
Format version                           : Version 4
File size                                : 1 005 MiB
Duration                                 : 25 min 12 s
Overall bit rate mode                    : Variable
Overall bit rate                         : 5 577 kb/s
Encoded date                             : UTC 2023-03-30 21:14:20
Writing application                      : mkvmerge v33.1.0 ('Primrose') 64-bit
Writing library                          : libebml v1.3.7 + libmatroska v1.5.0

Video
ID                                       : 1
Format                                   : AVC
Format/Info                              : Advanced Video Codec
Format profile                           : Main@L4
Format settings                          : CABAC / 3 Ref Frames
Format settings, CABAC                   : Yes
Format settings, Reference frames        : 3 frames
Codec ID                                 : V_MPEG4/ISO/AVC
Duration                                 : 25 min 12 s
Bit rate mode                            : Variable
Bit rate                                 : 3 772 kb/s
Nominal bit rate                         : 2 263 kb/s
Maximum bit rate                         : 11.2 Mb/s
Width                                    : 1 920 pixels
Height                                   : 1 080 pixels
Display aspect ratio                     : 16:9
Frame rate mode                          : Constant
Frame rate                               : 23.976 (24000/1001) FPS
Color space                              : YUV
Chroma subsampling                       : 4:2:0
Bit depth                                : 8 bits
Scan type                                : Progressive
Bits/(Pixel*Frame)                       : 0.076
Stream size                              : 680 MiB (68%)
Writing library                          : x264 core 148 r2727 7d026e8
Encoding settings                        : cabac=1 / ref=3 / deblock=1:0:0 / analyse=0x1:0x111 / me=umh / subme=10 / psy=1 / psy_rd=1.00:0.00 / mixed_ref=1 / me_range=24 / chroma_me=1 / trellis=2 / 8x8dct=0 / cqm=0 / deadzone=21,11 / fast_pskip=1 / chroma_qp_offset=-2 / threads=8 / lookahead_threads=1 / sliced_threads=0 / nr=0 / decimate=1 / interlaced=0 / bluray_compat=0 / stitchable=1 / constrained_intra=0 / bframes=2 / b_pyramid=0 / b_adapt=2 / b_bias=0 / direct=3 / weightb=1 / open_gop=0 / weightp=2 / keyint=250 / keyint_min=23 / scenecut=0 / intra_refresh=0 / rc_lookahead=48 / rc=2pass / mbtree=1 / bitrate=2263 / ratetol=1.0 / qcomp=0.50 / qpmin=6 / qpmax=51 / qpstep=4 / cplxblur=20.0 / qblur=0.5 / vbv_maxrate=11250 / vbv_bufsize=15000 / nal_hrd=vbr / filler=0 / ip_ratio=1.40 / aq=1:1.00
Default                                  : Yes
Forced                                   : No

Audio #1
ID                                       : 2
Format                                   : AAC LC SBR
Format/Info                              : Advanced Audio Codec Low Complexity with Spectral Band Replication
Commercial name                          : HE-AAC
Format settings                          : Explicit
Codec ID                                 : A_AAC-2
Duration                                 : 25 min 12 s
Bit rate                                 : 128 kb/s
Channel(s)                               : 2 channels
Channel layout                           : L R
Sampling rate                            : 48.0 kHz
Frame rate                               : 23.438 FPS (2048 SPF)
Compression mode                         : Lossy
Stream size                              : 23.1 MiB (2%)
Title                                    : Czech
Language                                 : Czech
Default                                  : No
Forced                                   : No

Audio #2
ID                                       : 3
Format                                   : AAC LC SBR
Format/Info                              : Advanced Audio Codec Low Complexity with Spectral Band Replication
Commercial name                          : HE-AAC
Format settings                          : Explicit
Codec ID                                 : A_AAC-2
Duration                                 : 25 min 12 s
Bit rate                                 : 128 kb/s
Channel(s)                               : 2 channels
Channel layout                           : L R
Sampling rate                            : 48.0 kHz
Frame rate                               : 23.438 FPS (2048 SPF)
Compression mode                         : Lossy
Stream size                              : 23.1 MiB (2%)
Title                                    : English
Language                                 : English
Default                                  : No
Forced                                   : No

Audio #3
ID                                       : 4
Format                                   : AAC LC SBR
Format/Info                              : Advanced Audio Codec Low Complexity with Spectral Band Replication
Commercial name                          : HE-AAC
Format settings                          : Explicit
Codec ID                                 : A_AAC-2
Duration                                 : 25 min 12 s
Bit rate                                 : 128 kb/s
Channel(s)                               : 2 channels
Channel layout                           : L R
Sampling rate                            : 48.0 kHz
Frame rate                               : 23.438 FPS (2048 SPF)
Compression mode                         : Lossy
Stream size                              : 23.1 MiB (2%)
Title                                    : French
Language                                 : French
Default                                  : No
Forced                                   : No

Audio #4
ID                                       : 5
Format                                   : AAC LC SBR
Format/Info                              : Advanced Audio Codec Low Complexity with Spectral Band Replication
Commercial name                          : HE-AAC
Format settings                          : Explicit
Codec ID                                 : A_AAC-2
Duration                                 : 25 min 12 s
Bit rate                                 : 128 kb/s
Channel(s)                               : 2 channels
Channel layout                           : L R
Sampling rate                            : 48.0 kHz
Frame rate                               : 23.438 FPS (2048 SPF)
Compression mode                         : Lossy
Stream size                              : 23.1 MiB (2%)
Title                                    : German
Language                                 : German
Default                                  : No
Forced                                   : No

Audio #5
ID                                       : 6
Format                                   : AAC LC SBR
Format/Info                              : Advanced Audio Codec Low Complexity with Spectral Band Replication
Commercial name                          : HE-AAC
Format settings                          : Explicit
Codec ID                                 : A_AAC-2
Duration                                 : 25 min 12 s
Bit rate                                 : 128 kb/s
Channel(s)                               : 2 channels
Channel layout                           : L R
Sampling rate                            : 48.0 kHz
Frame rate                               : 23.438 FPS (2048 SPF)
Compression mode                         : Lossy
Stream size                              : 23.1 MiB (2%)
Title                                    : Hungarian
Language                                 : Hungarian
Default                                  : No
Forced                                   : No

Audio #6
ID                                       : 7
Format                                   : AAC LC SBR
Format/Info                              : Advanced Audio Codec Low Complexity with Spectral Band Replication
Commercial name                          : HE-AAC
Format settings                          : Explicit
Codec ID                                 : A_AAC-2
Duration                                 : 25 min 12 s
Bit rate                                 : 128 kb/s
Channel(s)                               : 2 channels
Channel layout                           : L R
Sampling rate                            : 48.0 kHz
Frame rate                               : 23.438 FPS (2048 SPF)
Compression mode                         : Lossy
Stream size                              : 23.1 MiB (2%)
Title                                    : Italian
Language                                 : Italian
Default                                  : No
Forced                                   : No

Audio #7
ID                                       : 8
Format                                   : AAC LC SBR
Format/Info                              : Advanced Audio Codec Low Complexity with Spectral Band Replication
Commercial name                          : HE-AAC
Format settings                          : Explicit
Codec ID                                 : A_AAC-2
Duration                                 : 25 min 12 s
Bit rate                                 : 128 kb/s
Channel(s)                               : 2 channels
Channel layout                           : L R
Sampling rate                            : 48.0 kHz
Frame rate                               : 23.438 FPS (2048 SPF)
Compression mode                         : Lossy
Stream size                              : 23.1 MiB (2%)
Title                                    : Japanese
Language                                 : Japanese
Default                                  : No
Forced                                   : No

Audio #8
ID                                       : 9
Format                                   : AAC LC SBR
Format/Info                              : Advanced Audio Codec Low Complexity with Spectral Band Replication
Commercial name                          : HE-AAC
Format settings                          : Explicit
Codec ID                                 : A_AAC-2
Duration                                 : 25 min 12 s
Bit rate                                 : 128 kb/s
Channel(s)                               : 2 channels
Channel layout                           : L R
Sampling rate                            : 48.0 kHz
Frame rate                               : 23.438 FPS (2048 SPF)
Compression mode                         : Lossy
Stream size                              : 23.1 MiB (2%)
Title                                    : Japanese [Audio Description]
Language                                 : Japanese
Default                                  : No
Forced                                   : No

Audio #9
ID                                       : 10
Format                                   : AAC LC SBR
Format/Info                              : Advanced Audio Codec Low Complexity with Spectral Band Replication
Commercial name                          : HE-AAC
Format settings                          : Explicit
Codec ID                                 : A_AAC-2
Duration                                 : 25 min 12 s
Bit rate                                 : 128 kb/s
Channel(s)                               : 2 channels
Channel layout                           : L R
Sampling rate                            : 48.0 kHz
Frame rate                               : 23.438 FPS (2048 SPF)
Compression mode                         : Lossy
Stream size                              : 23.1 MiB (2%)
Title                                    : Polish
Language                                 : Polish
Default                                  : No
Forced                                   : No

Audio #10
ID                                       : 11
Format                                   : AAC LC SBR
Format/Info                              : Advanced Audio Codec Low Complexity with Spectral Band Replication
Commercial name                          : HE-AAC
Format settings                          : Explicit
Codec ID                                 : A_AAC-2
Duration                                 : 25 min 12 s
Bit rate                                 : 128 kb/s
Channel(s)                               : 2 channels
Channel layout                           : L R
Sampling rate                            : 48.0 kHz
Frame rate                               : 23.438 FPS (2048 SPF)
Compression mode                         : Lossy
Stream size                              : 23.1 MiB (2%)
Title                                    : Portuguese (Brazil)
Language                                 : Portuguese
Default                                  : No
Forced                                   : No

Audio #11
ID                                       : 12
Format                                   : AAC LC SBR
Format/Info                              : Advanced Audio Codec Low Complexity with Spectral Band Replication
Commercial name                          : HE-AAC
Format settings                          : Explicit
Codec ID                                 : A_AAC-2
Duration                                 : 25 min 12 s
Bit rate                                 : 128 kb/s
Channel(s)                               : 2 channels
Channel layout                           : L R
Sampling rate                            : 48.0 kHz
Frame rate                               : 23.438 FPS (2048 SPF)
Compression mode                         : Lossy
Stream size                              : 23.1 MiB (2%)
Title                                    : Spanish (Latin America)
Language                                 : Spanish
Default                                  : No
Forced                                   : No

Audio #12
ID                                       : 13
Format                                   : AAC LC SBR
Format/Info                              : Advanced Audio Codec Low Complexity with Spectral Band Replication
Commercial name                          : HE-AAC
Format settings                          : Explicit
Codec ID                                 : A_AAC-2
Duration                                 : 25 min 12 s
Bit rate                                 : 128 kb/s
Channel(s)                               : 2 channels
Channel layout                           : L R
Sampling rate                            : 48.0 kHz
Frame rate                               : 23.438 FPS (2048 SPF)
Compression mode                         : Lossy
Stream size                              : 23.1 MiB (2%)
Title                                    : Spanish (Spain)
Language                                 : Spanish
Default                                  : No
Forced                                   : No

Audio #13
ID                                       : 14
Format                                   : AAC LC SBR
Format/Info                              : Advanced Audio Codec Low Complexity with Spectral Band Replication
Commercial name                          : HE-AAC
Format settings                          : Explicit
Codec ID                                 : A_AAC-2
Duration                                 : 25 min 12 s
Bit rate                                 : 128 kb/s
Channel(s)                               : 2 channels
Channel layout                           : L R
Sampling rate                            : 48.0 kHz
Frame rate                               : 23.438 FPS (2048 SPF)
Compression mode                         : Lossy
Stream size                              : 23.1 MiB (2%)
Title                                    : Thai
Language                                 : Thai
Default                                  : No
Forced                                   : No

Audio #14
ID                                       : 15
Format                                   : AAC LC SBR
Format/Info                              : Advanced Audio Codec Low Complexity with Spectral Band Replication
Commercial name                          : HE-AAC
Format settings                          : Explicit
Codec ID                                 : A_AAC-2
Duration                                 : 25 min 12 s
Bit rate                                 : 128 kb/s
Channel(s)                               : 2 channels
Channel layout                           : L R
Sampling rate                            : 48.0 kHz
Frame rate                               : 23.438 FPS (2048 SPF)
Compression mode                         : Lossy
Stream size                              : 23.1 MiB (2%)
Title                                    : Turkish
Language                                 : Turkish
Default                                  : No
Forced                                   : No

Text #1
ID                                       : 16
Format                                   : UTF-8
Codec ID                                 : S_TEXT/UTF8
Codec ID/Info                            : UTF-8 Plain Text
Duration                                 : 23 min 43 s
Bit rate                                 : 97 b/s
Count of elements                        : 345
Stream size                              : 17.0 KiB (0%)
Title                                    : Arabic
Language                                 : Arabic
Default                                  : No
Forced                                   : No

Text #2
ID                                       : 17
Format                                   : UTF-8
Codec ID                                 : S_TEXT/UTF8
Codec ID/Info                            : UTF-8 Plain Text
Duration                                 : 23 min 43 s
Bit rate                                 : 58 b/s
Count of elements                        : 345
Stream size                              : 10.2 KiB (0%)
Title                                    : Chinese (Simplified)
Language                                 : Chinese
Default                                  : No
Forced                                   : No

Text #3
ID                                       : 18
Format                                   : UTF-8
Codec ID                                 : S_TEXT/UTF8
Codec ID/Info                            : UTF-8 Plain Text
Duration                                 : 23 min 43 s
Bit rate                                 : 54 b/s
Count of elements                        : 343
Stream size                              : 9.45 KiB (0%)
Title                                    : Chinese (Traditional)
Language                                 : Chinese
Default                                  : No
Forced                                   : No

Text #4
ID                                       : 19
Format                                   : UTF-8
Codec ID                                 : S_TEXT/UTF8
Codec ID/Info                            : UTF-8 Plain Text
Duration                                 : 23 min 43 s
Bit rate                                 : 64 b/s
Count of elements                        : 345
Stream size                              : 11.2 KiB (0%)
Title                                    : Croatian
Language                                 : Croatian
Default                                  : No
Forced                                   : No

Text #5
ID                                       : 20
Format                                   : UTF-8
Codec ID                                 : S_TEXT/UTF8
Codec ID/Info                            : UTF-8 Plain Text
Duration                                 : 23 min 43 s
Bit rate                                 : 4 b/s
Count of elements                        : 31
Stream size                              : 778 Bytes (0%)
Title                                    : Czech [Forced]
Language                                 : Czech
Default                                  : No
Forced                                   : Yes

Text #6
ID                                       : 21
Format                                   : UTF-8
Codec ID                                 : S_TEXT/UTF8
Codec ID/Info                            : UTF-8 Plain Text
Duration                                 : 23 min 43 s
Bit rate                                 : 63 b/s
Count of elements                        : 328
Stream size                              : 11.0 KiB (0%)
Title                                    : Czech
Language                                 : Czech
Default                                  : No
Forced                                   : No

Text #7
ID                                       : 22
Format                                   : UTF-8
Codec ID                                 : S_TEXT/UTF8
Codec ID/Info                            : UTF-8 Plain Text
Duration                                 : 23 min 43 s
Bit rate                                 : 60 b/s
Count of elements                        : 343
Stream size                              : 10.6 KiB (0%)
Title                                    : Danish
Language                                 : Danish
Default                                  : No
Forced                                   : No

Text #8
ID                                       : 23
Format                                   : UTF-8
Codec ID                                 : S_TEXT/UTF8
Codec ID/Info                            : UTF-8 Plain Text
Duration                                 : 23 min 43 s
Bit rate                                 : 60 b/s
Count of elements                        : 334
Stream size                              : 10.5 KiB (0%)
Title                                    : Dutch
Language                                 : Dutch
Default                                  : No
Forced                                   : No

Text #9
ID                                       : 24
Format                                   : UTF-8
Codec ID                                 : S_TEXT/UTF8
Codec ID/Info                            : UTF-8 Plain Text
Duration                                 : 23 min 25 s
Bit rate                                 : 3 b/s
Count of elements                        : 25
Stream size                              : 687 Bytes (0%)
Title                                    : English [Forced]
Language                                 : English
Default                                  : No
Forced                                   : Yes

Text #10
ID                                       : 25
Format                                   : UTF-8
Codec ID                                 : S_TEXT/UTF8
Codec ID/Info                            : UTF-8 Plain Text
Duration                                 : 23 min 38 s
Bit rate                                 : 73 b/s
Count of elements                        : 384
Stream size                              : 12.7 KiB (0%)
Title                                    : English [SDH]
Language                                 : English
Default                                  : No
Forced                                   : No

Text #11
ID                                       : 26
Format                                   : UTF-8
Codec ID                                 : S_TEXT/UTF8
Codec ID/Info                            : UTF-8 Plain Text
Duration                                 : 23 min 38 s
Bit rate                                 : 66 b/s
Count of elements                        : 348
Stream size                              : 11.5 KiB (0%)
Title                                    : English
Language                                 : English
Default                                  : No
Forced                                   : No

Text #12
ID                                       : 27
Format                                   : UTF-8
Codec ID                                 : S_TEXT/UTF8
Codec ID/Info                            : UTF-8 Plain Text
Duration                                 : 23 min 25 s
Bit rate                                 : 66 b/s
Count of elements                        : 342
Stream size                              : 11.5 KiB (0%)
Title                                    : English
Language                                 : English
Default                                  : No
Forced                                   : No

Text #13
ID                                       : 28
Format                                   : UTF-8
Codec ID                                 : S_TEXT/UTF8
Codec ID/Info                            : UTF-8 Plain Text
Duration                                 : 23 min 43 s
Bit rate                                 : 65 b/s
Count of elements                        : 344
Stream size                              : 11.4 KiB (0%)
Title                                    : Finnish
Language                                 : Finnish
Default                                  : No
Forced                                   : No

Text #14
ID                                       : 29
Format                                   : UTF-8
Codec ID                                 : S_TEXT/UTF8
Codec ID/Info                            : UTF-8 Plain Text
Duration                                 : 23 min 43 s
Bit rate                                 : 4 b/s
Count of elements                        : 30
Stream size                              : 782 Bytes (0%)
Title                                    : French [Forced]
Language                                 : French
Default                                  : No
Forced                                   : Yes

Text #15
ID                                       : 30
Format                                   : UTF-8
Codec ID                                 : S_TEXT/UTF8
Codec ID/Info                            : UTF-8 Plain Text
Duration                                 : 23 min 43 s
Bit rate                                 : 67 b/s
Count of elements                        : 339
Stream size                              : 11.7 KiB (0%)
Title                                    : French
Language                                 : French
Default                                  : No
Forced                                   : No

Text #16
ID                                       : 31
Format                                   : UTF-8
Codec ID                                 : S_TEXT/UTF8
Codec ID/Info                            : UTF-8 Plain Text
Duration                                 : 23 min 43 s
Bit rate                                 : 6 b/s
Count of elements                        : 37
Stream size                              : 1.14 KiB (0%)
Title                                    : German [Forced]
Language                                 : German
Default                                  : No
Forced                                   : Yes

Text #17
ID                                       : 32
Format                                   : UTF-8
Codec ID                                 : S_TEXT/UTF8
Codec ID/Info                            : UTF-8 Plain Text
Duration                                 : 23 min 43 s
Bit rate                                 : 64 b/s
Count of elements                        : 321
Stream size                              : 11.1 KiB (0%)
Title                                    : German
Language                                 : German
Default                                  : No
Forced                                   : No

Text #18
ID                                       : 33
Format                                   : UTF-8
Codec ID                                 : S_TEXT/UTF8
Codec ID/Info                            : UTF-8 Plain Text
Duration                                 : 23 min 43 s
Bit rate                                 : 108 b/s
Count of elements                        : 344
Stream size                              : 18.9 KiB (0%)
Title                                    : Greek
Language                                 : Greek
Default                                  : No
Forced                                   : No

Text #19
ID                                       : 34
Format                                   : UTF-8
Codec ID                                 : S_TEXT/UTF8
Codec ID/Info                            : UTF-8 Plain Text
Duration                                 : 23 min 43 s
Bit rate                                 : 83 b/s
Count of elements                        : 345
Stream size                              : 14.4 KiB (0%)
Title                                    : Hebrew
Language                                 : Hebrew
Default                                  : No
Forced                                   : No

Text #20
ID                                       : 35
Format                                   : UTF-8
Codec ID                                 : S_TEXT/UTF8
Codec ID/Info                            : UTF-8 Plain Text
Duration                                 : 23 min 43 s
Bit rate                                 : 6 b/s
Count of elements                        : 38
Stream size                              : 1.04 KiB (0%)
Title                                    : Hungarian [Forced]
Language                                 : Hungarian
Default                                  : No
Forced                                   : Yes

Text #21
ID                                       : 36
Format                                   : UTF-8
Codec ID                                 : S_TEXT/UTF8
Codec ID/Info                            : UTF-8 Plain Text
Duration                                 : 23 min 43 s
Bit rate                                 : 67 b/s
Count of elements                        : 341
Stream size                              : 11.7 KiB (0%)
Title                                    : Hungarian
Language                                 : Hungarian
Default                                  : No
Forced                                   : No

Text #22
ID                                       : 37
Format                                   : UTF-8
Codec ID                                 : S_TEXT/UTF8
Codec ID/Info                            : UTF-8 Plain Text
Duration                                 : 23 min 43 s
Bit rate                                 : 66 b/s
Count of elements                        : 343
Stream size                              : 11.6 KiB (0%)
Title                                    : Indonesian
Language                                 : Indonesian
Default                                  : No
Forced                                   : No

Text #23
ID                                       : 38
Format                                   : UTF-8
Codec ID                                 : S_TEXT/UTF8
Codec ID/Info                            : UTF-8 Plain Text
Duration                                 : 23 min 43 s
Bit rate                                 : 6 b/s
Count of elements                        : 38
Stream size                              : 1.12 KiB (0%)
Title                                    : Italian [Forced]
Language                                 : Italian
Default                                  : No
Forced                                   : Yes

Text #24
ID                                       : 39
Format                                   : UTF-8
Codec ID                                 : S_TEXT/UTF8
Codec ID/Info                            : UTF-8 Plain Text
Duration                                 : 23 min 43 s
Bit rate                                 : 68 b/s
Count of elements                        : 336
Stream size                              : 12.0 KiB (0%)
Title                                    : Italian
Language                                 : Italian
Default                                  : No
Forced                                   : No

Text #25
ID                                       : 40
Format                                   : UTF-8
Codec ID                                 : S_TEXT/UTF8
Codec ID/Info                            : UTF-8 Plain Text
Duration                                 : 2 s 502 ms
Bit rate                                 : 159 b/s
Count of elements                        : 1
Stream size                              : 50.0 Bytes (0%)
Title                                    : Japanese [Forced]
Language                                 : Japanese
Default                                  : No
Forced                                   : Yes

Text #26
ID                                       : 41
Format                                   : UTF-8
Codec ID                                 : S_TEXT/UTF8
Codec ID/Info                            : UTF-8 Plain Text
Duration                                 : 23 min 38 s
Bit rate                                 : 153 b/s
Count of elements                        : 377
Stream size                              : 26.6 KiB (0%)
Title                                    : Japanese [SDH]
Language                                 : Japanese
Default                                  : No
Forced                                   : No

Text #27
ID                                       : 42
Format                                   : UTF-8
Codec ID                                 : S_TEXT/UTF8
Codec ID/Info                            : UTF-8 Plain Text
Duration                                 : 23 min 43 s
Bit rate                                 : 67 b/s
Count of elements                        : 346
Stream size                              : 11.8 KiB (0%)
Title                                    : Korean
Language                                 : Korean
Default                                  : No
Forced                                   : No

Text #28
ID                                       : 43
Format                                   : UTF-8
Codec ID                                 : S_TEXT/UTF8
Codec ID/Info                            : UTF-8 Plain Text
Duration                                 : 23 min 43 s
Bit rate                                 : 68 b/s
Count of elements                        : 344
Stream size                              : 11.9 KiB (0%)
Title                                    : Malay
Language                                 : Malay
Default                                  : No
Forced                                   : No

Text #29
ID                                       : 44
Format                                   : UTF-8
Codec ID                                 : S_TEXT/UTF8
Codec ID/Info                            : UTF-8 Plain Text
Duration                                 : 23 min 43 s
Bit rate                                 : 60 b/s
Count of elements                        : 332
Stream size                              : 10.4 KiB (0%)
Title                                    : Norwegian Bokmål
Language                                 : Norwegian Bokmal
Default                                  : No
Forced                                   : No

Text #30
ID                                       : 45
Format                                   : UTF-8
Codec ID                                 : S_TEXT/UTF8
Codec ID/Info                            : UTF-8 Plain Text
Duration                                 : 23 min 43 s
Bit rate                                 : 5 b/s
Count of elements                        : 33
Stream size                              : 969 Bytes (0%)
Title                                    : Polish [Forced]
Language                                 : Polish
Default                                  : No
Forced                                   : Yes

Text #31
ID                                       : 46
Format                                   : UTF-8
Codec ID                                 : S_TEXT/UTF8
Codec ID/Info                            : UTF-8 Plain Text
Duration                                 : 23 min 43 s
Bit rate                                 : 65 b/s
Count of elements                        : 341
Stream size                              : 11.3 KiB (0%)
Title                                    : Polish
Language                                 : Polish
Default                                  : No
Forced                                   : No

Text #32
ID                                       : 47
Format                                   : UTF-8
Codec ID                                 : S_TEXT/UTF8
Codec ID/Info                            : UTF-8 Plain Text
Duration                                 : 23 min 43 s
Bit rate                                 : 5 b/s
Count of elements                        : 36
Stream size                              : 932 Bytes (0%)
Title                                    : Portuguese (Brazil) [Forced]
Language                                 : Portuguese
Default                                  : No
Forced                                   : Yes

Text #33
ID                                       : 48
Format                                   : UTF-8
Codec ID                                 : S_TEXT/UTF8
Codec ID/Info                            : UTF-8 Plain Text
Duration                                 : 23 min 43 s
Bit rate                                 : 62 b/s
Count of elements                        : 341
Stream size                              : 10.8 KiB (0%)
Title                                    : Portuguese (Brazil)
Language                                 : Portuguese
Default                                  : No
Forced                                   : No

Text #34
ID                                       : 49
Format                                   : UTF-8
Codec ID                                 : S_TEXT/UTF8
Codec ID/Info                            : UTF-8 Plain Text
Duration                                 : 23 min 43 s
Bit rate                                 : 63 b/s
Count of elements                        : 344
Stream size                              : 11.1 KiB (0%)
Title                                    : Portuguese
Language                                 : Portuguese
Default                                  : No
Forced                                   : No

Text #35
ID                                       : 50
Format                                   : UTF-8
Codec ID                                 : S_TEXT/UTF8
Codec ID/Info                            : UTF-8 Plain Text
Duration                                 : 23 min 43 s
Bit rate                                 : 62 b/s
Count of elements                        : 330
Stream size                              : 10.9 KiB (0%)
Title                                    : Romanian
Language                                 : Romanian
Default                                  : No
Forced                                   : No

Text #36
ID                                       : 51
Format                                   : UTF-8
Codec ID                                 : S_TEXT/UTF8
Codec ID/Info                            : UTF-8 Plain Text
Duration                                 : 23 min 43 s
Bit rate                                 : 105 b/s
Count of elements                        : 345
Stream size                              : 18.4 KiB (0%)
Title                                    : Russian
Language                                 : Russian
Default                                  : No
Forced                                   : No

Text #37
ID                                       : 52
Format                                   : UTF-8
Codec ID                                 : S_TEXT/UTF8
Codec ID/Info                            : UTF-8 Plain Text
Duration                                 : 23 min 43 s
Bit rate                                 : 6 b/s
Count of elements                        : 37
Stream size                              : 1.09 KiB (0%)
Title                                    : Spanish (Latin America) [Forced]
Language                                 : Spanish
Default                                  : No
Forced                                   : Yes

Text #38
ID                                       : 53
Format                                   : UTF-8
Codec ID                                 : S_TEXT/UTF8
Codec ID/Info                            : UTF-8 Plain Text
Duration                                 : 23 min 43 s
Bit rate                                 : 62 b/s
Count of elements                        : 344
Stream size                              : 10.8 KiB (0%)
Title                                    : Spanish (Latin America)
Language                                 : Spanish
Default                                  : No
Forced                                   : No

Text #39
ID                                       : 54
Format                                   : UTF-8
Codec ID                                 : S_TEXT/UTF8
Codec ID/Info                            : UTF-8 Plain Text
Duration                                 : 23 min 43 s
Bit rate                                 : 5 b/s
Count of elements                        : 38
Stream size                              : 903 Bytes (0%)
Title                                    : Spanish (Spain) [Forced]
Language                                 : Spanish
Default                                  : No
Forced                                   : Yes

Text #40
ID                                       : 55
Format                                   : UTF-8
Codec ID                                 : S_TEXT/UTF8
Codec ID/Info                            : UTF-8 Plain Text
Duration                                 : 23 min 43 s
Bit rate                                 : 61 b/s
Count of elements                        : 336
Stream size                              : 10.7 KiB (0%)
Title                                    : Spanish (Spain)
Language                                 : Spanish
Default                                  : No
Forced                                   : No

Text #41
ID                                       : 56
Format                                   : UTF-8
Codec ID                                 : S_TEXT/UTF8
Codec ID/Info                            : UTF-8 Plain Text
Duration                                 : 23 min 43 s
Bit rate                                 : 65 b/s
Count of elements                        : 343
Stream size                              : 11.4 KiB (0%)
Title                                    : Swedish
Language                                 : Swedish
Default                                  : No
Forced                                   : No

Text #42
ID                                       : 57
Format                                   : UTF-8
Codec ID                                 : S_TEXT/UTF8
Codec ID/Info                            : UTF-8 Plain Text
Duration                                 : 23 min 43 s
Bit rate                                 : 16 b/s
Count of elements                        : 39
Stream size                              : 2.83 KiB (0%)
Title                                    : Thai [Forced]
Language                                 : Thai
Default                                  : No
Forced                                   : Yes

Text #43
ID                                       : 58
Format                                   : UTF-8
Codec ID                                 : S_TEXT/UTF8
Codec ID/Info                            : UTF-8 Plain Text
Duration                                 : 23 min 43 s
Bit rate                                 : 155 b/s
Count of elements                        : 345
Stream size                              : 27.0 KiB (0%)
Title                                    : Thai
Language                                 : Thai
Default                                  : No
Forced                                   : No

Text #44
ID                                       : 59
Format                                   : UTF-8
Codec ID                                 : S_TEXT/UTF8
Codec ID/Info                            : UTF-8 Plain Text
Duration                                 : 23 min 43 s
Bit rate                                 : 6 b/s
Count of elements                        : 38
Stream size                              : 1.14 KiB (0%)
Title                                    : Turkish [Forced]
Language                                 : Turkish
Default                                  : No
Forced                                   : Yes

Text #45
ID                                       : 60
Format                                   : UTF-8
Codec ID                                 : S_TEXT/UTF8
Codec ID/Info                            : UTF-8 Plain Text
Duration                                 : 23 min 43 s
Bit rate                                 : 67 b/s
Count of elements                        : 344
Stream size                              : 11.8 KiB (0%)
Title                                    : Turkish
Language                                 : Turkish
Default                                  : No
Forced                                   : No

Text #46
ID                                       : 61
Format                                   : UTF-8
Codec ID                                 : S_TEXT/UTF8
Codec ID/Info                            : UTF-8 Plain Text
Duration                                 : 23 min 43 s
Bit rate                                 : 101 b/s
Count of elements                        : 343
Stream size                              : 17.6 KiB (0%)
Title                                    : Ukrainian
Language                                 : Ukrainian
Default                                  : No
Forced                                   : No

Text #47
ID                                       : 62
Format                                   : UTF-8
Codec ID                                 : S_TEXT/UTF8
Codec ID/Info                            : UTF-8 Plain Text
Duration                                 : 23 min 43 s
Bit rate                                 : 84 b/s
Count of elements                        : 343
Stream size                              : 14.6 KiB (0%)
Title                                    : Vietnamese
Language                                 : Vietnamese
Default                                  : No
Forced                                   : No

Menu
00:00:00.000                             : en:Part 1
00:23:51.000                             : en:Credits

Other Files in this Torrent
Uncle.from.Another.World.S01E01.Im.Finally.Back.From.the.Fantasy.World.of.Granbahamal.After.17.Long.Years.NF.WEB-DL.AAC2.0.H.264-DucksterPS.mkv
beta
Anime DDL+NZB mirror
Current Time: 14/07/2024 19:37



About/FAQs

Discord