[Tsundere] Hyouka - 06 [BDRip h264 1920x1080 10bit FLAC][11EF1F30].mkv


File Size469.2 MB (491,977,305 bytes)
DownloadGo4Up | Jheberg | MultiUp | SolidFiles | UsersCloud | UsersFiles
Sendspace: Part1, Part2
HashesCRC32: 11EF1F30, MD5: 9DAEB60F51F75250037DC7BE069926A7, SHA1: E9866DB46405F000C883E46FF333CDF5A19D208A, SHA256: 2BC7A38A19887A0C3653D408DFBBD7F85258CF74E9E4F532C393E1EDC7287A96, ED2K: F862A95C431BBCC43E6385389EB965A5
Screenshots
screenshotscreenshotscreenshotscreenshotscreenshot
SubtitlesAll Attachments | eng [ASS]
Additional Info
General
Unique ID                                : 217687401449769902381241844210312130290 (0xA3C5118901898338AB71B58D7737AEF2)
Complete name                            : [Tsundere] Hyouka - 06 [BDRip h264 1920x1080 10bit FLAC][11EF1F30].mkv
Format                                   : Matroska
Format version                           : Version 4 / Version 2
File size                                : 469 MiB
Duration                                 : 25mn 41s
Overall bit rate mode                    : Variable
Overall bit rate                         : 2 554 Kbps
Movie name                               : Hyouka E06: Committing a Cardinal Sin
Encoded date                             : UTC 2016-04-07 15:30:54
Writing application                      : mkvmerge v8.8.0 ('Wind at my back') 64bit
Writing library                          : libebml v1.3.3 + libmatroska v1.4.4
Attachments                              : PPETRIAL.otf / ARLRDBD.TTF / CENTURY.TTF / GOTHIC.TTF / JandaCurlygirlChunky.ttf / NewBaskerville.ttf / ObelixPro-cyr.ttf / Sansation_Regular.ttf / second breakfast.ttf / THROW MY HANDS UP IN THE AIR.TTF / CaxtonStd-Bold.otf / CaxtonStd-BoldItalic.otf

Video
ID                                       : 1
Format                                   : AVC
Format/Info                              : Advanced Video Codec
Format profile                           : High 10@L5
Format settings, CABAC                   : Yes
Format settings, ReFrames                : 5 frames
Codec ID                                 : V_MPEG4/ISO/AVC
Duration                                 : 25mn 41s
Bit rate                                 : 1 944 Kbps
Width                                    : 1 920 pixels
Height                                   : 1 080 pixels
Display aspect ratio                     : 16:9
Frame rate mode                          : Constant
Frame rate                               : 23.976 (24000/1001) fps
Original frame rate                      : 23.976 (23976/1000) fps
Color space                              : YUV
Chroma subsampling                       : 4:2:0
Bit depth                                : 10 bits
Scan type                                : Progressive
Bits/(Pixel*Frame)                       : 0.039
Stream size                              : 357 MiB (76%)
Writing library                          : x264 core 148 r2665 a01e339
Encoding settings                        : cabac=1 / ref=5 / deblock=1:1:1 / analyse=0x3:0x113 / me=umh / subme=10 / psy=1 / psy_rd=0.40:0.00 / mixed_ref=1 / me_range=32 / chroma_me=1 / trellis=2 / 8x8dct=1 / cqm=0 / deadzone=21,11 / fast_pskip=1 / chroma_qp_offset=-2 / threads=12 / lookahead_threads=1 / sliced_threads=0 / nr=0 / decimate=1 / interlaced=0 / bluray_compat=0 / constrained_intra=0 / bframes=3 / b_pyramid=2 / b_adapt=2 / b_bias=0 / direct=3 / weightb=1 / open_gop=0 / weightp=2 / keyint=250 / keyint_min=23 / scenecut=60 / intra_refresh=0 / rc_lookahead=60 / rc=crf / mbtree=1 / crf=16.0 / qcomp=0.60 / qpmin=0 / qpmax=81 / qpstep=4 / ip_ratio=1.40 / aq=1:0.70
Default                                  : Yes
Forced                                   : No
Color range                              : Limited
Matrix coefficients                      : BT.709

Audio
ID                                       : 2
Format                                   : FLAC
Format/Info                              : Free Lossless Audio Codec
Codec ID                                 : A_FLAC
Duration                                 : 25mn 41s
Bit rate mode                            : Variable
Bit rate                                 : 605 Kbps
Channel(s)                               : 2 channels
Sampling rate                            : 48.0 KHz
Frame rate                               : 11.719 fps (4096 spf)
Bit depth                                : 16 bits
Stream size                              : 111 MiB (24%)
Writing library                          : libFLAC 1.2.1 (UTC 2007-09-17)
Language                                 : Japanese
Default                                  : Yes
Forced                                   : No

Text
ID                                       : 3
Format                                   : ASS
Codec ID                                 : S_TEXT/ASS
Codec ID/Info                            : Advanced Sub Station Alpha
Duration                                 : 25mn 38s
Bit rate                                 : 166 bps
Count of elements                        : 472
Compression mode                         : Lossless
Stream size                              : 31.3 KiB (0%)
Language                                 : English
Default                                  : Yes
Forced                                   : No

Menu
00:00:00.000                             : :Intro
00:01:28.005                             : :OP
00:02:58.053                             : :Episode
00:24:00.522                             : :ED
00:25:30.028                             : :Preview

Other Files in this Torrent
[Tsundere] Hyouka - 06 [BDRip h264 1920x1080 10bit FLAC][11EF1F30].mkv
beta
Anime DDL+NZB mirror
Current Time: 03/08/2021 17:15



About/FAQs