[Tsundere] Hyouka - 05 [BDRip h264 1920x1080 10bit FLAC][C4F0DC48].mkv


File Size626.7 MB (657,168,764 bytes)
DownloadGo4Up | Jheberg | MultiUp | UsersCloud | UsersFiles
Sendspace: Part1, Part2, Part3
SolidFiles: Part1, Part2
HashesCRC32: C4F0DC48, MD5: 73702497894CCBE035D3F5FC1CCB7367, SHA1: 2DBED615E21C7284DC9877F247A1CC5C4505C374, SHA256: F2E09EE9D75926449B4F3F868F78A994F68767F935B628BC1D6C7CF219464740, ED2K: 573A868C3972669037B1F4D1B8C1C1FF
Screenshots
screenshotscreenshotscreenshotscreenshotscreenshot
SubtitlesAll Attachments | eng [ASS]
Additional Info
General
Unique ID                                : 175768428363670725464684499105746269176 (0x843BC49821C01D508916E529957433F8)
Complete name                            : [Tsundere] Hyouka - 05 [BDRip h264 1920x1080 10bit FLAC][C4F0DC48].mkv
Format                                   : Matroska
Format version                           : Version 4 / Version 2
File size                                : 627 MiB
Duration                                 : 28mn 43s
Overall bit rate mode                    : Variable
Overall bit rate                         : 3 051 Kbps
Movie name                               : Hyouka E05: The Truth of the Classics Club and Its Past
Encoded date                             : UTC 2016-04-07 15:24:26
Writing application                      : mkvmerge v8.8.0 ('Wind at my back') 64bit
Writing library                          : libebml v1.3.3 + libmatroska v1.4.4
Attachments                              : edosz.ttf / GOTHIC.TTF / JandaCurlygirlChunky.ttf / LinLibertine_RB.ttf / NewBaskerville.ttf / Sansation_Regular.ttf / second breakfast.ttf / THROW MY HANDS UP IN THE AIR.TTF / CaxtonStd-Bold.otf / CaxtonStd-BoldItalic.otf / CENTURY.TTF / Comfortaa-Bold.ttf / cookielove.ttf / Danger Diabolik.ttf

Video
ID                                       : 1
Format                                   : AVC
Format/Info                              : Advanced Video Codec
Format profile                           : High 10@L5
Format settings, CABAC                   : Yes
Format settings, ReFrames                : 5 frames
Codec ID                                 : V_MPEG4/ISO/AVC
Duration                                 : 28mn 43s
Bit rate                                 : 2 446 Kbps
Width                                    : 1 920 pixels
Height                                   : 1 080 pixels
Display aspect ratio                     : 16:9
Frame rate mode                          : Constant
Frame rate                               : 23.976 (24000/1001) fps
Original frame rate                      : 23.976 (23976/1000) fps
Color space                              : YUV
Chroma subsampling                       : 4:2:0
Bit depth                                : 10 bits
Scan type                                : Progressive
Bits/(Pixel*Frame)                       : 0.049
Stream size                              : 502 MiB (80%)
Writing library                          : x264 core 148 r2665 a01e339
Encoding settings                        : cabac=1 / ref=5 / deblock=1:1:1 / analyse=0x3:0x113 / me=umh / subme=10 / psy=1 / psy_rd=0.40:0.00 / mixed_ref=1 / me_range=32 / chroma_me=1 / trellis=2 / 8x8dct=1 / cqm=0 / deadzone=21,11 / fast_pskip=1 / chroma_qp_offset=-2 / threads=12 / lookahead_threads=1 / sliced_threads=0 / nr=0 / decimate=1 / interlaced=0 / bluray_compat=0 / constrained_intra=0 / bframes=3 / b_pyramid=2 / b_adapt=2 / b_bias=0 / direct=3 / weightb=1 / open_gop=0 / weightp=2 / keyint=250 / keyint_min=23 / scenecut=60 / intra_refresh=0 / rc_lookahead=60 / rc=crf / mbtree=1 / crf=16.0 / qcomp=0.60 / qpmin=0 / qpmax=81 / qpstep=4 / ip_ratio=1.40 / aq=1:0.70
Default                                  : Yes
Forced                                   : No
Color range                              : Limited
Matrix coefficients                      : BT.709

Audio
ID                                       : 2
Format                                   : FLAC
Format/Info                              : Free Lossless Audio Codec
Codec ID                                 : A_FLAC
Duration                                 : 28mn 43s
Bit rate mode                            : Variable
Bit rate                                 : 595 Kbps
Channel(s)                               : 2 channels
Sampling rate                            : 48.0 KHz
Frame rate                               : 11.719 fps (4096 spf)
Bit depth                                : 16 bits
Stream size                              : 122 MiB (20%)
Writing library                          : libFLAC 1.2.1 (UTC 2007-09-17)
Language                                 : Japanese
Default                                  : Yes
Forced                                   : No

Text
ID                                       : 3
Format                                   : ASS
Codec ID                                 : S_TEXT/ASS
Codec ID/Info                            : Advanced Sub Station Alpha
Duration                                 : 28mn 36s
Bit rate                                 : 398 bps
Count of elements                        : 818
Compression mode                         : Lossless
Stream size                              : 83.5 KiB (0%)
Language                                 : English
Default                                  : Yes
Forced                                   : No

Menu
00:00:00.000                             : :Intro
00:02:16.053                             : :OP
00:03:46.059                             : :Episode
00:27:05.040                             : :ED
00:28:34.129                             : :Preview

Other Files in this Torrent
[Tsundere] Hyouka - 05 [BDRip h264 1920x1080 10bit FLAC][C4F0DC48].mkv
beta
Anime DDL+NZB mirror
Current Time: 03/08/2021 16:54



About/FAQs