[Tsundere] Higurashi No Naku Koro Ni - 05 [DVDRip h264 1024x576 10bit FLAC][F839FFA1].mkv


File Size446.0 MB (467,632,036 bytes)
DownloadClickNUpload | Go4Up | Jheberg | MultiUp | OpenLoad | SolidFiles | ZippyShare
Sendspace: Part1, Part2
Encrypted DownloadDirect
Password:
HashesCRC32: F839FFA1, MD5: CA0CDF7A1F5EF737D9E8F6CF60F81F75, SHA1: FF72096B4A32FBC84D2564DB8BCC2E091203AD44, SHA256: 1EACA9335759351C31282DD84D1FB895FE864666C28A0725D079D094ED105761, ED2K: D73683C6D4CA7171C2DE35E416E4FAD0
Screenshots
screenshotscreenshotscreenshotscreenshotscreenshot
SubtitlesAll Attachments | eng [ASS]
Additional Info
General
Unique ID                                : 217034537969587420745735277317181490203 (0xA34754E163FEAA7DAB7D4BF4F985441B)
Complete name                            : [Tsundere] Higurashi No Naku Koro Ni - 05 [DVDRip h264 1024x576 10bit FLAC][F839FFA1].mkv
Format                                   : Matroska
Format version                           : Version 4 / Version 2
File size                                : 446 MiB
Duration                                 : 23 min 41 s
Overall bit rate mode                    : Variable
Overall bit rate                         : 2 633 kb/s
Movie name                               : Higurashi No Naku Koro Ni E05: Jealousy (Chapter: The Cotton Drifting, Part1)
Encoded date                             : UTC 2016-01-26 19:35:32
Writing application                      : mkvmerge v7.9.0 ('Birds') 64bit
Writing library                          : libebml v1.3.1 + libmatroska v1.4.2
Attachments                              : [gg]_Nerawareta_Gakuen_(BD,1080p)_[3C33C253]_attachment_Light at the end.ttf / ADMSR.TTF / A-OTF-RyuminStd-Heavy-KO-AnoHana.ttf / Impress BT.ttf / IWAMINPRO-BD-EN.otf / LAURENCB.TTF / pastel crayon.ttf

Video
ID                                       : 1
Format                                   : AVC
Format/Info                              : Advanced Video Codec
Format profile                           : High 10@L3.2
Format settings, CABAC                   : Yes
Format settings, ReFrames                : 8 frames
Codec ID                                 : V_MPEG4/ISO/AVC
Duration                                 : 23 min 41 s
Bit rate                                 : 1 895 kb/s
Width                                    : 1 024 pixels
Height                                   : 576 pixels
Display aspect ratio                     : 16:9
Frame rate mode                          : Constant
Frame rate                               : 23.976 (24000/1001) FPS
Color space                              : YUV
Chroma subsampling                       : 4:2:0
Bit depth                                : 10 bits
Scan type                                : Progressive
Bits/(Pixel*Frame)                       : 0.134
Stream size                              : 321 MiB (72%)
Writing library                          : x264 core 120 r2120M 0c7dab9
Encoding settings                        : cabac=1 / ref=8 / deblock=1:-2:-2 / analyse=0x3:0x113 / me=umh / subme=9 / psy=1 / psy_rd=0.95:0.00 / mixed_ref=1 / me_range=16 / chroma_me=1 / trellis=2 / 8x8dct=1 / cqm=0 / deadzone=21,11 / fast_pskip=1 / chroma_qp_offset=-2 / threads=3 / sliced_threads=0 / nr=0 / decimate=0 / interlaced=0 / bluray_compat=0 / constrained_intra=0 / bframes=8 / b_pyramid=2 / b_adapt=2 / b_bias=0 / direct=1 / weightb=1 / open_gop=0 / weightp=2 / keyint=250 / keyint_min=23 / scenecut=40 / intra_refresh=0 / rc=crf / mbtree=0 / crf=16.0 / qcomp=0.75 / qpmin=8 / qpmax=38 / qpstep=4 / ip_ratio=1.40 / pb_ratio=1.30 / aq=1:0.90
Default                                  : Yes
Forced                                   : No
Color range                              : Limited
Matrix coefficients                      : BT.601

Audio
ID                                       : 2
Format                                   : FLAC
Format/Info                              : Free Lossless Audio Codec
Codec ID                                 : A_FLAC
Duration                                 : 23 min 41 s
Bit rate mode                            : Variable
Bit rate                                 : 702 kb/s
Channel(s)                               : 2 channels
Channel positions                        : Front: L R
Sampling rate                            : 48.0 kHz
Frame rate                               : 11.719 FPS (4096 spf)
Bit depth                                : 16 bits
Stream size                              : 119 MiB (27%)
Writing library                          : libFLAC 1.2.1 (UTC 2007-09-17)
Language                                 : Japanese
Default                                  : Yes
Forced                                   : No

Text
ID                                       : 3
Format                                   : ASS
Codec ID                                 : S_TEXT/ASS
Codec ID/Info                            : Advanced Sub Station Alpha
Duration                                 : 23 min 21 s
Bit rate                                 : 120 b/s
Count of elements                        : 387
Compression mode                         : Lossless
Stream size                              : 20.6 KiB (0%)
Language                                 : English
Default                                  : Yes
Forced                                   : No

Menu
00:00:00.000                             : :Intro
00:00:24.066                             : :OP
00:01:54.031                             : :Episode
00:21:44.970                             : :ED
00:23:15.060                             : :Preview

Other Files in this Torrent
[Tsundere] Higurashi No Naku Koro Ni - 05 [DVDRip h264 1024x576 10bit FLAC][F839FFA1].mkv
beta
Anime DDL+NZB mirror
Current Time: 04/04/2020 22:02



About/FAQs