[Tsundere] Higurashi No Naku Koro Ni - 04 [DVDRip h264 1024x576 10bit FLAC][57549FFA].mkv


File Size519.8 MB (545,008,437 bytes)
DownloadClickNUpload | Go4Up | Jheberg | MultiUp | OpenLoad
Sendspace: Part1, Part2
SolidFiles: Part1, Part2
ZippyShare: Part1, Part2
Encrypted DownloadDirect
Password:
HashesCRC32: 57549FFA, MD5: 44077394D9F62959D89431B3E74D20DC, SHA1: AF25215E40DE21D8048D649323D1C37BB30FD283, SHA256: 47DAA4686DE47E03BE1320BC2EB9C58260BDBAC13040921114A1E7071D5A77AD, ED2K: 4C87CD1509C06A976F77009F93B9558D
Screenshots
screenshotscreenshotscreenshotscreenshotscreenshot
SubtitlesAll Attachments | eng [ASS]
Additional Info
General
Unique ID                                : 180183183278029861849052733178417173918 (0x878E04D10F9B31B5A2192BC0AF32D59E)
Complete name                            : [Tsundere] Higurashi No Naku Koro Ni - 04 [DVDRip h264 1024x576 10bit FLAC][57549FFA].mkv
Format                                   : Matroska
Format version                           : Version 4 / Version 2
File size                                : 520 MiB
Duration                                 : 23 min 41 s
Overall bit rate mode                    : Variable
Overall bit rate                         : 3 068 kb/s
Movie name                               : Higurashi No Naku Koro Ni E04: Disturbance (Chapter: Spirited Away by the Demon, Part 4)
Encoded date                             : UTC 2016-01-23 00:53:47
Writing application                      : mkvmerge v7.9.0 ('Birds') 64bit
Writing library                          : libebml v1.3.1 + libmatroska v1.4.2
Attachments                              : 21st Century Juliet.ttf / A-OTF-RyuminStd-Heavy-KO-AnoHana.ttf / Impress BT.ttf / IWAMINPRO-BD-EN.otf / LAURENCB.TTF / pastel crayon.ttf / [gg]_Nerawareta_Gakuen_(BD,1080p)_[3C33C253]_attachment_Light at the end.ttf

Video
ID                                       : 1
Format                                   : AVC
Format/Info                              : Advanced Video Codec
Format profile                           : High 10@L3.2
Format settings, CABAC                   : Yes
Format settings, ReFrames                : 8 frames
Codec ID                                 : V_MPEG4/ISO/AVC
Duration                                 : 23 min 41 s
Bit rate                                 : 2 339 kb/s
Width                                    : 1 024 pixels
Height                                   : 576 pixels
Display aspect ratio                     : 16:9
Frame rate mode                          : Constant
Frame rate                               : 23.976 (24000/1001) FPS
Color space                              : YUV
Chroma subsampling                       : 4:2:0
Bit depth                                : 10 bits
Scan type                                : Progressive
Bits/(Pixel*Frame)                       : 0.165
Stream size                              : 396 MiB (76%)
Writing library                          : x264 core 120 r2120M 0c7dab9
Encoding settings                        : cabac=1 / ref=8 / deblock=1:-2:-2 / analyse=0x3:0x113 / me=umh / subme=9 / psy=1 / psy_rd=0.95:0.00 / mixed_ref=1 / me_range=16 / chroma_me=1 / trellis=2 / 8x8dct=1 / cqm=0 / deadzone=21,11 / fast_pskip=1 / chroma_qp_offset=-2 / threads=3 / sliced_threads=0 / nr=0 / decimate=0 / interlaced=0 / bluray_compat=0 / constrained_intra=0 / bframes=8 / b_pyramid=2 / b_adapt=2 / b_bias=0 / direct=1 / weightb=1 / open_gop=0 / weightp=2 / keyint=250 / keyint_min=23 / scenecut=40 / intra_refresh=0 / rc=crf / mbtree=0 / crf=16.0 / qcomp=0.75 / qpmin=8 / qpmax=38 / qpstep=4 / ip_ratio=1.40 / pb_ratio=1.30 / aq=1:0.90
Default                                  : Yes
Forced                                   : No
Color range                              : Limited
Matrix coefficients                      : BT.601

Audio
ID                                       : 2
Format                                   : FLAC
Format/Info                              : Free Lossless Audio Codec
Codec ID                                 : A_FLAC
Duration                                 : 23 min 40 s
Bit rate mode                            : Variable
Bit rate                                 : 693 kb/s
Channel(s)                               : 2 channels
Channel positions                        : Front: L R
Sampling rate                            : 48.0 kHz
Frame rate                               : 11.719 FPS (4096 spf)
Bit depth                                : 16 bits
Stream size                              : 117 MiB (23%)
Writing library                          : libFLAC 1.2.1 (UTC 2007-09-17)
Language                                 : Japanese
Default                                  : Yes
Forced                                   : No

Text
ID                                       : 3
Format                                   : ASS
Codec ID                                 : S_TEXT/ASS
Codec ID/Info                            : Advanced Sub Station Alpha
Duration                                 : 23 min 37 s
Bit rate                                 : 118 b/s
Count of elements                        : 372
Compression mode                         : Lossless
Stream size                              : 20.6 KiB (0%)
Language                                 : English
Default                                  : Yes
Forced                                   : No

Menu
00:00:00.000                             : :Intro
00:00:26.068                             : :OP
00:01:56.033                             : :Episode
00:21:44.970                             : :ED
00:23:15.060                             : :Preview

Other Files in this Torrent
[Tsundere] Higurashi No Naku Koro Ni - 04 [DVDRip h264 1024x576 10bit FLAC][57549FFA].mkv
beta
Anime DDL+NZB mirror
Current Time: 04/04/2020 21:18



About/FAQs