File Size118.6 MB (124,364,708 bytes)
DownloadClickNUpload | DailyUploads | DownloadGG | GoFile | KrakenFiles | MdiaLoad | MultiUp
  • BdUpload
  • DownAce
  • Fichier
  • FileCloud
  • Filerio
  • FilesCdn
  • IndiShare
  • Kbagi
  • Turbobit
  • UpToBox
  • Uppit
| Uppit
HashesCRC32: 01C83B3A, MD5: 470EF2C0B4C71A2A088794243DB32914, SHA1: 87EE03318722FDA7B016C370A6AFE44FAD264EDB, SHA256: 601B77B9E7A6FA4CA1796BA17BABB0F4E1B3B169FDA317CA96A8015BBCC443B8, ED2K: 817BA0F8F4B96E4410D8581C1C55F249
Screenshots
screenshotscreenshotscreenshotscreenshotscreenshot
SubtitlesAll Attachments | English [eng, ASS], French [fre, ASS], German [ger, ASS], Italian [ita, ASS], Portuguese (Brazilian) [por, ASS], Russian [rus, ASS], Spanish [spa, ASS], Spanish (Latin America) [spa, ASS]
Additional Info
General
Unique ID                                : 335123153861973836984733504511616269674 (0xFC1E5F2841DA0F823A85EFF16FE8BD6A)
Complete name                            : [Trix] Tensei Shitara Slime Datta Ken Coleus no Yume - 03 (WEB 720p AV1).mkv
Format                                   : Matroska
Format version                           : Version 4
File size                                : 119 MiB
Duration                                 : 24 min 30 s
Overall bit rate                         : 677 kb/s
Frame rate                               : 23.976 FPS
Movie name                               : Visions of Coleus: Purple and Roses
Encoded date                             : 2023-11-01 09:10:29 UTC
Writing application                      : mkvmerge v79.0.4 ('Funeral Pyres') 64-bit
Writing library                          : libebml v1.4.4 + libmatroska v1.7.1
Cover                                    : Yes
Attachments                              : VERDANA.TTF / ARIALBD.TTF / TAHOMA.TTF / ARIAL.TTF / GEORGIAZ.TTF / TIMESBI.TTF / VERDANAI.TTF / VERDANAB.TTF / TIMES.TTF / GEORGIAI.TTF / GANDHISANS-BOLD.OTF / TREBUCIT.TTF / GANDHISANS-BOLDITALIC.OTF / TREBUCBI.TTF / TREBUC.TTF / TIMESBD.TTF / GEORGIA.TTF / TREBUCBD.TTF / IMPACT.TTF / GEORGIAB.TTF / cover

Video
ID                                       : 1
Format                                   : AV1
Format/Info                              : AOMedia Video 1
Format profile                           : Main@L3.1
Codec ID                                 : V_AV1
Duration                                 : 24 min 30 s
Bit rate                                 : 454 kb/s
Width                                    : 1 280 pixels
Height                                   : 720 pixels
Display aspect ratio                     : 16:9
Frame rate mode                          : Constant
Frame rate                               : 23.976 (24000/1001) FPS
Color space                              : YUV
Chroma subsampling                       : 4:2:0
Bit depth                                : 10 bits
Bits/(Pixel*Frame)                       : 0.021
Stream size                              : 79.6 MiB (67%)
Title                                    : By Trix
Default                                  : Yes
Forced                                   : No
Color range                              : Limited
Color primaries                          : BT.709
Transfer characteristics                 : BT.709
Matrix coefficients                      : BT.709

Audio
ID                                       : 2
Format                                   : AAC LC
Format/Info                              : Advanced Audio Codec Low Complexity
Codec ID                                 : A_AAC-2
Duration                                 : 24 min 30 s
Bit rate                                 : 128 kb/s
Channel(s)                               : 2 channels
Channel layout                           : L R
Sampling rate                            : 44.1 kHz
Frame rate                               : 43.066 FPS (1024 SPF)
Compression mode                         : Lossy
Stream size                              : 22.4 MiB (19%)
Title                                    : Japanese - AAC 2.0
Language                                 : Japanese
Default                                  : Yes
Forced                                   : No

Text #1
ID                                       : 3
Format                                   : ASS
Codec ID                                 : S_TEXT/ASS
Codec ID/Info                            : Advanced Sub Station Alpha
Duration                                 : 24 min 7 s
Bit rate                                 : 132 b/s
Frame rate                               : 0.271 FPS
Count of elements                        : 392
Compression mode                         : Lossless
Stream size                              : 23.4 KiB (0%)
Title                                    : English
Language                                 : English
Default                                  : Yes
Forced                                   : No

Text #2
ID                                       : 4
Format                                   : ASS
Codec ID                                 : S_TEXT/ASS
Codec ID/Info                            : Advanced Sub Station Alpha
Duration                                 : 24 min 7 s
Bit rate                                 : 154 b/s
Frame rate                               : 0.260 FPS
Count of elements                        : 376
Compression mode                         : Lossless
Stream size                              : 27.3 KiB (0%)
Title                                    : French
Language                                 : French
Default                                  : No
Forced                                   : No

Text #3
ID                                       : 5
Format                                   : ASS
Codec ID                                 : S_TEXT/ASS
Codec ID/Info                            : Advanced Sub Station Alpha
Duration                                 : 24 min 7 s
Bit rate                                 : 178 b/s
Frame rate                               : 0.255 FPS
Count of elements                        : 369
Compression mode                         : Lossless
Stream size                              : 31.6 KiB (0%)
Title                                    : German
Language                                 : German
Default                                  : No
Forced                                   : No

Text #4
ID                                       : 6
Format                                   : ASS
Codec ID                                 : S_TEXT/ASS
Codec ID/Info                            : Advanced Sub Station Alpha
Duration                                 : 24 min 6 s
Bit rate                                 : 167 b/s
Frame rate                               : 0.294 FPS
Count of elements                        : 425
Compression mode                         : Lossless
Stream size                              : 29.6 KiB (0%)
Title                                    : Italian
Language                                 : Italian
Default                                  : No
Forced                                   : No

Text #5
ID                                       : 7
Format                                   : ASS
Codec ID                                 : S_TEXT/ASS
Codec ID/Info                            : Advanced Sub Station Alpha
Duration                                 : 24 min 7 s
Bit rate                                 : 153 b/s
Frame rate                               : 0.269 FPS
Count of elements                        : 389
Compression mode                         : Lossless
Stream size                              : 27.2 KiB (0%)
Title                                    : Portuguese (Brazilian)
Language                                 : Portuguese
Default                                  : No
Forced                                   : No

Text #6
ID                                       : 8
Format                                   : ASS
Codec ID                                 : S_TEXT/ASS
Codec ID/Info                            : Advanced Sub Station Alpha
Duration                                 : 24 min 7 s
Bit rate                                 : 234 b/s
Frame rate                               : 0.274 FPS
Count of elements                        : 397
Compression mode                         : Lossless
Stream size                              : 41.5 KiB (0%)
Title                                    : Russian
Language                                 : Russian
Default                                  : No
Forced                                   : No

Text #7
ID                                       : 9
Format                                   : ASS
Codec ID                                 : S_TEXT/ASS
Codec ID/Info                            : Advanced Sub Station Alpha
Duration                                 : 24 min 6 s
Bit rate                                 : 139 b/s
Frame rate                               : 0.240 FPS
Count of elements                        : 347
Compression mode                         : Lossless
Stream size                              : 24.6 KiB (0%)
Title                                    : Spanish
Language                                 : Spanish
Default                                  : No
Forced                                   : No

Text #8
ID                                       : 10
Format                                   : ASS
Codec ID                                 : S_TEXT/ASS
Codec ID/Info                            : Advanced Sub Station Alpha
Duration                                 : 24 min 6 s
Bit rate                                 : 138 b/s
Frame rate                               : 0.240 FPS
Count of elements                        : 347
Compression mode                         : Lossless
Stream size                              : 24.4 KiB (0%)
Title                                    : Spanish (Latin America)
Language                                 : Spanish
Default                                  : No
Forced                                   : No

Menu
00:00:00.000                             : en:Opening
00:01:30.007                             : en:Part A
00:10:10.026                             : en:Part B
00:22:19.046                             : en:Ending
00:23:49.094                             : en:Epilogue

Other Files in this Torrent
[Trix] Tensei Shitara Slime Datta Ken Coleus no Yume - 03 (WEB 720p AV1).mkv
beta
Anime DDL+NZB mirror
Current Time: 25/05/2024 15:00



About/FAQs

Discord