File Size107.1 MB (112,266,151 bytes)
DownloadClickNUpload | DailyUploads | DownloadGG | GoFile | KrakenFiles | MdiaLoad | MultiUp
  • BdUpload
  • DownAce
  • Fichier
  • FileCloud
  • Filerio
  • FilesCdn
  • IndiShare
  • Kbagi
  • Turbobit
  • UpToBox
  • Uppit
| Uppit
HashesCRC32: 4F04EFFF, MD5: D0AC4D2C51529ADB1D13B7D0B581148A, SHA1: 998F0868772CD01BD136F32ED398E0A0D8CF0E62, SHA256: 402840CFAAFCFD2E54778D074D8D93736541228FFF27FF0D283DC38B83092C50, ED2K: 582D50E5A03820CC98F23BFC3D1361B7
Screenshots
screenshotscreenshotscreenshotscreenshotscreenshot
SubtitlesAll Attachments | English [eng, ASS], French [fre, ASS], German [ger, ASS], Italian [ita, ASS], Portuguese (Brazilian) [por, ASS], Russian [rus, ASS], Spanish [spa, ASS], Spanish (Latin America) [spa, ASS]
Additional Info
General
Unique ID                                : 80033042435906892788167586781507071796 (0x3C35CDA4DB77EBF605A7E3EFAC17AF34)
Complete name                            : [Trix] Tensei Shitara Slime Datta Ken Coleus no Yume - 02 (WEB 720p AV1).mkv
Format                                   : Matroska
Format version                           : Version 4
File size                                : 107 MiB
Duration                                 : 24 min 31 s
Overall bit rate                         : 610 kb/s
Frame rate                               : 23.976 FPS
Movie name                               : Visions of Coleus: Great Phantom Thief Satoru
Encoded date                             : 2023-11-01 09:10:28 UTC
Writing application                      : mkvmerge v79.0.4 ('Funeral Pyres') 64-bit
Writing library                          : libebml v1.4.4 + libmatroska v1.7.1
Cover                                    : Yes
Attachments                              : VERDANA.TTF / TREBUCBD.TTF / GEORGIAB.TTF / TAHOMA.TTF / TIMESBI.TTF / IMPACT.TTF / GEORGIA.TTF / GEORGIAI.TTF / TIMES.TTF / VERDANAI.TTF / GANDHISANS-BOLDITALIC.OTF / VERDANAB.TTF / TREBUCBI.TTF / ARIALBD.TTF / GEORGIAZ.TTF / TREBUCIT.TTF / TIMESBD.TTF / TREBUC.TTF / ARIAL.TTF / GANDHISANS-BOLD.OTF / cover

Video
ID                                       : 1
Format                                   : AV1
Format/Info                              : AOMedia Video 1
Format profile                           : Main@L3.1
Codec ID                                 : V_AV1
Duration                                 : 24 min 29 s
Bit rate                                 : 398 kb/s
Width                                    : 1 280 pixels
Height                                   : 720 pixels
Display aspect ratio                     : 16:9
Frame rate mode                          : Constant
Frame rate                               : 23.976 (24000/1001) FPS
Color space                              : YUV
Chroma subsampling                       : 4:2:0
Bit depth                                : 10 bits
Bits/(Pixel*Frame)                       : 0.018
Stream size                              : 69.8 MiB (65%)
Title                                    : By Trix
Default                                  : Yes
Forced                                   : No
Color range                              : Limited
Color primaries                          : BT.709
Transfer characteristics                 : BT.709
Matrix coefficients                      : BT.709

Audio
ID                                       : 2
Format                                   : AAC LC
Format/Info                              : Advanced Audio Codec Low Complexity
Codec ID                                 : A_AAC-2
Duration                                 : 24 min 30 s
Bit rate                                 : 128 kb/s
Channel(s)                               : 2 channels
Channel layout                           : L R
Sampling rate                            : 44.1 kHz
Frame rate                               : 43.066 FPS (1024 SPF)
Compression mode                         : Lossy
Stream size                              : 22.4 MiB (21%)
Title                                    : Japanese - AAC 2.0
Language                                 : Japanese
Default                                  : Yes
Forced                                   : No

Text #1
ID                                       : 3
Format                                   : ASS
Codec ID                                 : S_TEXT/ASS
Codec ID/Info                            : Advanced Sub Station Alpha
Duration                                 : 24 min 18 s
Bit rate                                 : 139 b/s
Frame rate                               : 0.282 FPS
Count of elements                        : 411
Compression mode                         : Lossless
Stream size                              : 24.8 KiB (0%)
Title                                    : English
Language                                 : English
Default                                  : Yes
Forced                                   : No

Text #2
ID                                       : 4
Format                                   : ASS
Codec ID                                 : S_TEXT/ASS
Codec ID/Info                            : Advanced Sub Station Alpha
Duration                                 : 24 min 15 s
Bit rate                                 : 158 b/s
Frame rate                               : 0.266 FPS
Count of elements                        : 387
Compression mode                         : Lossless
Stream size                              : 28.1 KiB (0%)
Title                                    : French
Language                                 : French
Default                                  : No
Forced                                   : No

Text #3
ID                                       : 5
Format                                   : ASS
Codec ID                                 : S_TEXT/ASS
Codec ID/Info                            : Advanced Sub Station Alpha
Duration                                 : 24 min 17 s
Bit rate                                 : 224 b/s
Frame rate                               : 0.272 FPS
Count of elements                        : 396
Compression mode                         : Lossless
Stream size                              : 40.0 KiB (0%)
Title                                    : German
Language                                 : German
Default                                  : No
Forced                                   : No

Text #4
ID                                       : 6
Format                                   : ASS
Codec ID                                 : S_TEXT/ASS
Codec ID/Info                            : Advanced Sub Station Alpha
Duration                                 : 24 min 17 s
Bit rate                                 : 203 b/s
Frame rate                               : 0.300 FPS
Count of elements                        : 438
Compression mode                         : Lossless
Stream size                              : 36.2 KiB (0%)
Title                                    : Italian
Language                                 : Italian
Default                                  : No
Forced                                   : No

Text #5
ID                                       : 7
Format                                   : ASS
Codec ID                                 : S_TEXT/ASS
Codec ID/Info                            : Advanced Sub Station Alpha
Duration                                 : 24 min 18 s
Bit rate                                 : 159 b/s
Frame rate                               : 0.279 FPS
Count of elements                        : 407
Compression mode                         : Lossless
Stream size                              : 28.5 KiB (0%)
Title                                    : Portuguese (Brazilian)
Language                                 : Portuguese
Default                                  : No
Forced                                   : No

Text #6
ID                                       : 8
Format                                   : ASS
Codec ID                                 : S_TEXT/ASS
Codec ID/Info                            : Advanced Sub Station Alpha
Duration                                 : 24 min 18 s
Bit rate                                 : 250 b/s
Frame rate                               : 0.276 FPS
Count of elements                        : 403
Compression mode                         : Lossless
Stream size                              : 44.7 KiB (0%)
Title                                    : Russian
Language                                 : Russian
Default                                  : No
Forced                                   : No

Text #7
ID                                       : 9
Format                                   : ASS
Codec ID                                 : S_TEXT/ASS
Codec ID/Info                            : Advanced Sub Station Alpha
Duration                                 : 24 min 19 s
Bit rate                                 : 157 b/s
Frame rate                               : 0.255 FPS
Count of elements                        : 372
Compression mode                         : Lossless
Stream size                              : 28.0 KiB (0%)
Title                                    : Spanish
Language                                 : Spanish
Default                                  : No
Forced                                   : No

Text #8
ID                                       : 10
Format                                   : ASS
Codec ID                                 : S_TEXT/ASS
Codec ID/Info                            : Advanced Sub Station Alpha
Duration                                 : 24 min 19 s
Bit rate                                 : 156 b/s
Frame rate                               : 0.255 FPS
Count of elements                        : 372
Compression mode                         : Lossless
Stream size                              : 27.9 KiB (0%)
Title                                    : Spanish (Latin America)
Language                                 : Spanish
Default                                  : No
Forced                                   : No

Menu
00:00:00.000                             : en:Prologue
00:00:42.042                             : en:Opening
00:02:12.007                             : en:Part A
00:11:50.001                             : en:Part B
00:22:54.957                             : en:Ending
00:24:24.963                             : en:Preview

Other Files in this Torrent
[Trix] Tensei Shitara Slime Datta Ken Coleus no Yume - 02 (WEB 720p AV1).mkv
beta
Anime DDL+NZB mirror
Current Time: 25/05/2024 15:19



About/FAQs

Discord