Tokyo Ghoul OVA 1080p [01] Jack [aac ITA JAP sub ENG] by Salvo.mkv


File Size913.7 MB (958,066,809 bytes)
DownloadClickNUpload | Jheberg | MultiUp
  • ClickNupload
  • Fichier
  • Filerio
  • Free
  • Fufox
  • HugeFiles
  • Mightyupload
  • ToutBox
  • Turbobit
  • UpToBox
  • Uplea
  • UploadBaz
  • Uploadable
  • Uploaded
  • Uppit
  • Userscloud
| OpenLoad
Sendspace: Part1, Part2, Part3, Part4
SolidFiles: Part1, Part2
Encrypted DownloadDirect
Password:
HashesCRC32: 7DE24173, MD5: 8ADF83BB6AE98B68F892E9269C3F807D, SHA1: BEB3F109815E31DC61FC595CE032FCA3270B2312, SHA256: EC5B551418F7845A69ED69E6F59C5BC08A6190A4728FDCC2A374AA8D849BB7E0, ED2K: B9034EAF2FAB9D402DA7ADBE619B2850
Screenshots
screenshotscreenshotscreenshotscreenshotscreenshot
SubtitlesAll Attachments | Signs [eng, ASS], Full Subtitles [eng, ASS]
Additional Info
General
Unique ID                                : 171499935218625745818601815943341949470 (0x8105AFA24543689C9D34BE0C9138421E)
Complete name                            : Tokyo Ghoul OVA 1080p [01] Jack [aac ITA JAP sub ENG] by Salvo.mkv
Format                                   : Matroska
Format version                           : Version 4 / Version 2
File size                                : 914 MiB
Duration                                 : 30 min 1 s
Overall bit rate                         : 4 255 kb/s
Movie name                               : Tokyo Ghoul OVA: "Jack"
Encoded date                             : UTC 2017-05-28 19:43:12
Writing application                      : mkvmerge v7.2.0 ('On Every Street') 32bit built on Sep 13 2014 15:42:11
Writing library                          : libebml v1.3.0 + libmatroska v1.4.1
Attachments                              : Denne Marker.ttf / OLDSH__.TTF / Angie-Bold.ttf / arial_0.ttf / constan.ttf

Video
ID                                       : 1
Format                                   : AVC
Format/Info                              : Advanced Video Codec
Format profile                           : High@L4.1
Format settings, CABAC                   : Yes
Format settings, ReFrames                : 4 frames
Codec ID                                 : V_MPEG4/ISO/AVC
Duration                                 : 30 min 1 s
Bit rate                                 : 4 000 kb/s
Width                                    : 1 920 pixels
Height                                   : 1 080 pixels
Display aspect ratio                     : 16:9
Frame rate mode                          : Constant
Frame rate                               : 23.976 (24000/1001) FPS
Color space                              : YUV
Chroma subsampling                       : 4:2:0
Bit depth                                : 8 bits
Scan type                                : Progressive
Bits/(Pixel*Frame)                       : 0.080
Stream size                              : 860 MiB (94%)
Writing library                          : x264 core 148 r2744 b97ae06
Encoding settings                        : cabac=1 / ref=4 / deblock=1:1:1 / analyse=0x3:0x113 / me=hex / subme=8 / psy=1 / psy_rd=0.40:0.00 / mixed_ref=1 / me_range=16 / chroma_me=1 / trellis=2 / 8x8dct=1 / cqm=0 / deadzone=21,11 / fast_pskip=1 / chroma_qp_offset=-2 / threads=1 / lookahead_threads=1 / sliced_threads=0 / nr=0 / decimate=1 / interlaced=0 / bluray_compat=0 / constrained_intra=0 / bframes=3 / b_pyramid=2 / b_adapt=1 / b_bias=0 / direct=3 / weightb=1 / open_gop=0 / weightp=2 / keyint=240 / keyint_min=23 / scenecut=40 / intra_refresh=0 / rc_lookahead=50 / rc=2pass / mbtree=1 / bitrate=4000 / ratetol=1.0 / qcomp=0.60 / qpmin=0 / qpmax=69 / qpstep=4 / cplxblur=20.0 / qblur=0.5 / vbv_maxrate=62500 / vbv_bufsize=78125 / nal_hrd=none / filler=0 / ip_ratio=1.40 / aq=1:0.60
Default                                  : Yes
Forced                                   : No

Audio #1
ID                                       : 2
Format                                   : AAC
Format/Info                              : Advanced Audio Codec
Format profile                           : LC
Codec ID                                 : A_AAC
Duration                                 : 30 min 1 s
Bit rate                                 : 119 kb/s
Channel(s)                               : 2 channels
Channel positions                        : Front: L R
Sampling rate                            : 48.0 kHz
Frame rate                               : 46.875 FPS (1024 spf)
Compression mode                         : Lossy
Delay relative to video                  : 9 ms
Stream size                              : 25.5 MiB (3%)
Title                                    : aac 2ch
Language                                 : Italian
Default                                  : Yes
Forced                                   : No

Audio #2
ID                                       : 3
Format                                   : AAC
Format/Info                              : Advanced Audio Codec
Format profile                           : LC
Codec ID                                 : A_AAC
Duration                                 : 30 min 1 s
Bit rate                                 : 120 kb/s
Channel(s)                               : 2 channels
Channel positions                        : Front: L R
Sampling rate                            : 48.0 kHz
Frame rate                               : 46.875 FPS (1024 spf)
Compression mode                         : Lossy
Delay relative to video                  : 9 ms
Stream size                              : 25.7 MiB (3%)
Title                                    : aac 2ch
Language                                 : Japanese
Default                                  : No
Forced                                   : No

Text #1
ID                                       : 4
Format                                   : ASS
Codec ID                                 : S_TEXT/ASS
Codec ID/Info                            : Advanced Sub Station Alpha
Duration                                 : 27 min 56 s
Bit rate                                 : 792 b/s
Count of elements                        : 1418
Compression mode                         : Lossless
Stream size                              : 162 KiB (0%)
Title                                    : Signs
Language                                 : English
Default                                  : Yes
Forced                                   : No

Text #2
ID                                       : 5
Format                                   : ASS
Codec ID                                 : S_TEXT/ASS
Codec ID/Info                            : Advanced Sub Station Alpha
Duration                                 : 28 min 43 s
Bit rate                                 : 812 b/s
Count of elements                        : 1826
Compression mode                         : Lossless
Stream size                              : 171 KiB (0%)
Title                                    : Full Subtitles
Language                                 : English
Default                                  : No
Forced                                   : No

Menu
00:00:00.000                             : en:Intro
00:01:29.005                             : en:Part 1
00:10:45.080                             : en:Part 2
00:19:29.080                             : en:Part 3
00:26:30.020                             : en:Epilogue
00:28:53.020                             : en:Ending

Other Files in this Torrent
Tokyo Ghoul OVA 1080p [01] Jack [aac ITA JAP sub ENG] by Salvo.mkv
beta
Anime DDL+NZB mirror
Current Time: 19/07/2019 06:50



About/FAQs