Tokyo Ghoul OVA 1080p [02] Pinto [aac ITA JAP sub ENG] by Salvo.mkv


File Size740.0 MB (775,904,612 bytes)
DownloadClickNUpload | Go4Up | Jheberg | MultiUp
  • ClickNupload
  • Fichier
  • Filerio
  • Free
  • Fufox
  • HugeFiles
  • Mightyupload
  • ToutBox
  • Turbobit
  • UpToBox
  • Uplea
  • UploadBaz
  • Uploadable
  • Uploaded
  • Uppit
  • Userscloud
| OpenLoad
Sendspace: Part1, Part2, Part3
SolidFiles: Part1, Part2
HashesCRC32: 84820A3A, MD5: 1476AFE37997CFFD832251EE55977579, SHA1: 541A712FFA2D7C7BCC18F9BBDEEC8AD404AE379A, SHA256: 9A9C43DFED6400EF931BC97F9EEE684A5BBDD3E824C19265540F5762666029A5, ED2K: 4C7FB86E6A6426CC8F188F29C0ECE036
Screenshots
screenshotscreenshotscreenshotscreenshotscreenshot
SubtitlesAll Attachments | Signs [eng, ASS], Full Subtitles [eng, ASS]
Additional Info
General
Unique ID                                : 252450446549114857726353740356601039983 (0xBDEC2FFC9C6633158E98F7BC9F24CC6F)
Complete name                            : Tokyo Ghoul OVA 1080p [02] Pinto [aac ITA JAP sub ENG] by Salvo.mkv
Format                                   : Matroska
Format version                           : Version 4 / Version 2
File size                                : 740 MiB
Duration                                 : 24 min 23 s
Overall bit rate                         : 4 242 kb/s
Movie name                               : Tokyo Ghoul: "Pinto"
Encoded date                             : UTC 2017-05-30 19:32:24
Writing application                      : mkvmerge v7.2.0 ('On Every Street') 32bit built on Sep 13 2014 15:42:11
Writing library                          : libebml v1.3.0 + libmatroska v1.4.1
Attachments                              : Angie-Bold_1.ttf / ArnoPro-Smbd_0.otf / BinaryITC TT Light_0.ttf

Video
ID                                       : 1
Format                                   : AVC
Format/Info                              : Advanced Video Codec
Format profile                           : High@L4.1
Format settings, CABAC                   : Yes
Format settings, ReFrames                : 4 frames
Codec ID                                 : V_MPEG4/ISO/AVC
Duration                                 : 24 min 23 s
Bit rate                                 : 4 000 kb/s
Width                                    : 1 920 pixels
Height                                   : 1 080 pixels
Display aspect ratio                     : 16:9
Frame rate mode                          : Constant
Frame rate                               : 23.976 (24000/1001) FPS
Color space                              : YUV
Chroma subsampling                       : 4:2:0
Bit depth                                : 8 bits
Scan type                                : Progressive
Bits/(Pixel*Frame)                       : 0.080
Stream size                              : 699 MiB (94%)
Writing library                          : x264 core 148 r2744 b97ae06
Encoding settings                        : cabac=1 / ref=4 / deblock=1:1:1 / analyse=0x3:0x113 / me=hex / subme=8 / psy=1 / psy_rd=0.40:0.00 / mixed_ref=1 / me_range=16 / chroma_me=1 / trellis=2 / 8x8dct=1 / cqm=0 / deadzone=21,11 / fast_pskip=1 / chroma_qp_offset=-2 / threads=1 / lookahead_threads=1 / sliced_threads=0 / nr=0 / decimate=1 / interlaced=0 / bluray_compat=0 / constrained_intra=0 / bframes=3 / b_pyramid=2 / b_adapt=1 / b_bias=0 / direct=3 / weightb=1 / open_gop=0 / weightp=2 / keyint=240 / keyint_min=23 / scenecut=40 / intra_refresh=0 / rc_lookahead=50 / rc=2pass / mbtree=1 / bitrate=4000 / ratetol=1.0 / qcomp=0.60 / qpmin=0 / qpmax=69 / qpstep=4 / cplxblur=20.0 / qblur=0.5 / vbv_maxrate=62500 / vbv_bufsize=78125 / nal_hrd=none / filler=0 / ip_ratio=1.40 / aq=1:0.60
Default                                  : Yes
Forced                                   : No

Audio #1
ID                                       : 2
Format                                   : AAC
Format/Info                              : Advanced Audio Codec
Format profile                           : LC
Codec ID                                 : A_AAC
Duration                                 : 24 min 23 s
Bit rate                                 : 113 kb/s
Channel(s)                               : 2 channels
Channel positions                        : Front: L R
Sampling rate                            : 48.0 kHz
Frame rate                               : 46.875 FPS (1024 spf)
Compression mode                         : Lossy
Delay relative to video                  : 9 ms
Stream size                              : 19.7 MiB (3%)
Title                                    : aac 2ch
Language                                 : Italian
Default                                  : Yes
Forced                                   : No

Audio #2
ID                                       : 3
Format                                   : AAC
Format/Info                              : Advanced Audio Codec
Format profile                           : LC
Codec ID                                 : A_AAC
Duration                                 : 24 min 23 s
Bit rate                                 : 117 kb/s
Channel(s)                               : 2 channels
Channel positions                        : Front: L R
Sampling rate                            : 48.0 kHz
Frame rate                               : 46.875 FPS (1024 spf)
Compression mode                         : Lossy
Delay relative to video                  : 9 ms
Stream size                              : 20.5 MiB (3%)
Title                                    : aac 2ch
Language                                 : Japanese
Default                                  : No
Forced                                   : No

Text #1
ID                                       : 4
Format                                   : ASS
Codec ID                                 : S_TEXT/ASS
Codec ID/Info                            : Advanced Sub Station Alpha
Duration                                 : 22 min 33 s
Bit rate                                 : 361 b/s
Count of elements                        : 370
Compression mode                         : Lossless
Stream size                              : 59.6 KiB (0%)
Title                                    : Signs
Language                                 : English
Default                                  : Yes
Forced                                   : No

Text #2
ID                                       : 5
Format                                   : ASS
Codec ID                                 : S_TEXT/ASS
Codec ID/Info                            : Advanced Sub Station Alpha
Duration                                 : 24 min 11 s
Bit rate                                 : 415 b/s
Count of elements                        : 674
Compression mode                         : Lossless
Stream size                              : 73.7 KiB (0%)
Title                                    : Full Subtitles
Language                                 : English
Default                                  : No
Forced                                   : No

Menu
00:00:00.033                             : en:Episode
00:20:40.010                             : en:ED
00:22:57.230                             : en:Epilogue

Other Files in this Torrent
Tokyo Ghoul OVA 1080p [02] Pinto [aac ITA JAP sub ENG] by Salvo.mkv
beta
Anime DDL+NZB mirror
Current Time: 02/12/2021 15:35



About/FAQs

Discord