[ToishY] Owarimonogatari 2nd Season - Mayoi Hell - Part 2 (BDRip 1920x1080 x264 FLAC).mkv


File Size1.531 GB (1,644,322,306 bytes)
DownloadClickNUpload | Jheberg
MultiUp: Part1
  • BdUpload
  • DownAce
  • Fichier
  • FileCloud
  • Filerio
  • FilesCdn
  • IndiShare
  • Kbagi
  • Turbobit
  • UpToBox
  • Uppit
, Part2
  • BdUpload
  • DownAce
  • Fichier
  • FileCloud
  • Filerio
  • FilesCdn
  • IndiShare
  • Kbagi
  • Turbobit
  • UpToBox
  • Uppit
, Part3
  • BdUpload
  • DownAce
  • Fichier
  • FileCloud
  • Filerio
  • FilesCdn
  • IndiShare
  • Kbagi
  • Turbobit
  • UpToBox
  • Uppit
, Part4
  • BdUpload
  • DownAce
  • Fichier
  • FileCloud
  • Filerio
  • FilesCdn
  • IndiShare
  • Kbagi
  • Turbobit
  • UpToBox
  • Uppit

OpenLoad: Part1, Part2
Sendspace: Part1, Part2, Part3, Part4, Part5, Part6
SolidFiles: Part1, Part2, Part3, Part4
ZippyShare: Part1, Part2, Part3, Part4
HashesCRC32: 2155DC7A, MD5: 3FB8DF4D6C8B56BCE9C9433DC07DE34D, SHA1: 71CEB670D047A245AB860E6DC6FBD334F31CE2A3, SHA256: 39AA3B155FA3EE6AA718463EF5F7A72EE1A294F40B1235C56BEB7239F83A2FF4, ED2K: FC7760740F6D655EC61CFD51DE0C527B
Screenshots
screenshotscreenshotscreenshotscreenshotscreenshot
SubtitlesAll Attachments | [ToishY] English [eng, ASS]
Additional Info
General
Unique ID                                : 174320444480444838392883404781770246948 (0x8324E57A1A1A69DE42097EC43F2C0B24)
Complete name                            : [ToishY] Owarimonogatari 2nd Season - Mayoi Hell - Part 2 (BDRip 1920x1080 x264 FLAC).mkv
Format                                   : Matroska
Format version                           : Version 4
File size                                : 1.53 GiB
Duration                                 : 24 min 3 s
Overall bit rate mode                    : Variable
Overall bit rate                         : 9 115 kb/s
Movie name                               : [ToishY] Owarimonogatari 2nd Season - Mayoi Hell - Part 2
Encoded date                             : UTC 2019-08-30 18:46:41
Writing application                      : mkvmerge v28.2.0 ('The Awakening') 64-bit
Writing library                          : libebml v1.3.6 + libmatroska v1.4.9
Attachments                              : MyriadPro-Regular.otf / OldNewspaperTypes.ttf / DFPPOP1-W5.ttf / Dupree.ttf / FTLTLT.TTF / Gabriola.ttf / KozukaMinchoProStrp-M.otf / LLCHARLOTTE.TTF / MOD20.TTF / MyriadPro-It.otf

Video
ID                                       : 1
Format                                   : AVC
Format/Info                              : Advanced Video Codec
Format profile                           : High@L4
Format settings                          : CABAC / 4 Ref Frames
Format settings, CABAC                   : Yes
Format settings, ReFrames                : 4 frames
Codec ID                                 : V_MPEG4/ISO/AVC
Duration                                 : 24 min 3 s
Bit rate                                 : 7 716 kb/s
Width                                    : 1 920 pixels
Height                                   : 1 080 pixels
Display aspect ratio                     : 16:9
Frame rate mode                          : Constant
Frame rate                               : 23.976 (24000/1001) FPS
Color space                              : YUV
Chroma subsampling                       : 4:2:0
Bit depth                                : 8 bits
Scan type                                : Progressive
Bits/(Pixel*Frame)                       : 0.155
Stream size                              : 1.30 GiB (85%)
Writing library                          : x264 core 152
Encoding settings                        : opencl=1 / cabac=1 / ref=4 / deblock=1:-2:-2 / analyse=0x3:0x113 / me=umh / subme=9 / psy=1 / psy_rd=0.70:0.00 / mixed_ref=0 / me_range=32 / chroma_me=1 / trellis=2 / 8x8dct=1 / cqm=0 / deadzone=21,11 / fast_pskip=1 / chroma_qp_offset=-2 / threads=8 / lookahead_threads=1 / sliced_threads=0 / nr=0 / decimate=1 / interlaced=0 / bluray_compat=0 / constrained_intra=0 / bframes=9 / b_pyramid=2 / b_adapt=2 / b_bias=0 / direct=3 / weightb=1 / open_gop=0 / weightp=2 / keyint=250 / keyint_min=23 / scenecut=40 / intra_refresh=0 / rc_lookahead=40 / rc=crf / mbtree=1 / crf=16.0 / qcomp=0.70 / qpmin=10 / qpmax=20 / qpstep=4 / ip_ratio=1.40 / aq=1:1.00
Default                                  : Yes
Forced                                   : No

Audio
ID                                       : 2
Format                                   : FLAC
Format/Info                              : Free Lossless Audio Codec
Codec ID                                 : A_FLAC
Duration                                 : 24 min 3 s
Bit rate mode                            : Variable
Bit rate                                 : 1 367 kb/s
Channel(s)                               : 2 channels
Channel layout                           : L R
Sampling rate                            : 48.0 kHz
Frame rate                               : 10.417 FPS (4608 SPF)
Bit depth                                : 24 bits
Compression mode                         : Lossless
Stream size                              : 235 MiB (15%)
Writing library                          : Lavf57.83.100
Language                                 : Japanese
Default                                  : Yes
Forced                                   : No

Text
ID                                       : 3
Format                                   : ASS
Codec ID                                 : S_TEXT/ASS
Codec ID/Info                            : Advanced Sub Station Alpha
Duration                                 : 23 min 57 s
Bit rate                                 : 700 b/s
Count of elements                        : 1265
Compression mode                         : Lossless
Stream size                              : 123 KiB (0%)
Title                                    : [ToishY] English
Language                                 : English
Default                                  : Yes
Forced                                   : No

Other Files in this Torrent
[ToishY] Owarimonogatari 2nd Season - Mayoi Hell - Part 2 (BDRip 1920x1080 x264 FLAC).mkv
beta
Anime DDL+NZB mirror
Current Time: 05/12/2021 11:27



About/FAQs

Discord