[ToishY] Owarimonogatari 2nd Season - Ougi Dark - Part 1 (BDRip 1920x1080 x264 FLAC).mkv


File Size1.116 GB (1,198,440,930 bytes)
DownloadClickNUpload | Jheberg
MultiUp: Part1
  • BdUpload
  • DownAce
  • Fichier
  • FileCloud
  • Filerio
  • FilesCdn
  • IndiShare
  • Kbagi
  • Turbobit
  • UpToBox
  • Uppit
, Part2
  • BdUpload
  • DownAce
  • Fichier
  • FileCloud
  • Filerio
  • FilesCdn
  • IndiShare
  • Kbagi
  • Turbobit
  • UpToBox
  • Uppit
, Part3
  • BdUpload
  • DownAce
  • Fichier
  • FileCloud
  • Filerio
  • FilesCdn
  • IndiShare
  • Kbagi
  • Turbobit
  • UpToBox
  • Uppit

OpenLoad: Part1, Part2
Sendspace: Part1, Part2, Part3, Part4
SolidFiles: Part1, Part2, Part3
ZippyShare: Part1, Part2, Part3
HashesCRC32: A19DD530, MD5: 5A88187CD6E656669B3C816A2DFE85F5, SHA1: B05E4449E419D330F54A69B7671CC92F36E992B5, SHA256: 23C8A38BF13A5419D9A4D17A077B7953C26085E032D56BD93F05193182D94C30, ED2K: 2FE13308812A00ED680DE2290FF0A311
Screenshots
screenshotscreenshotscreenshotscreenshotscreenshot
SubtitlesAll Attachments | [ToishY] English [eng, ASS]
Additional Info
General
Unique ID                                : 18611163990560299109828919463664834240 (0xE00613AC3D484E990ADD1F3AD9A56C0)
Complete name                            : [ToishY] Owarimonogatari 2nd Season - Ougi Dark - Part 1 (BDRip 1920x1080 x264 FLAC).mkv
Format                                   : Matroska
Format version                           : Version 4
File size                                : 1.12 GiB
Duration                                 : 23 min 52 s
Overall bit rate mode                    : Variable
Overall bit rate                         : 6 695 kb/s
Movie name                               : [ToishY] Owarimonogatari 2nd Season - Ougi Dark - Part 1
Encoded date                             : UTC 2019-08-30 18:49:19
Writing application                      : mkvmerge v28.2.0 ('The Awakening') 64-bit
Writing library                          : libebml v1.3.6 + libmatroska v1.4.9
Attachments                              : MOD20.TTF / MyriadPro-It.otf / MyriadPro-Regular.otf / OldNewspaperTypes.ttf / Roomy Normal.ttf / URWAlcuinT.ttf / Dupree.ttf / FRML436N.TTF / KozukaMinchoProStrp-M.otf / LBRITE.TTF / LLCHARLOTTE.TTF / MAIAN.TTF

Video
ID                                       : 1
Format                                   : AVC
Format/Info                              : Advanced Video Codec
Format profile                           : High@L4
Format settings                          : CABAC / 4 Ref Frames
Format settings, CABAC                   : Yes
Format settings, ReFrames                : 4 frames
Codec ID                                 : V_MPEG4/ISO/AVC
Duration                                 : 23 min 52 s
Bit rate                                 : 5 327 kb/s
Width                                    : 1 920 pixels
Height                                   : 1 080 pixels
Display aspect ratio                     : 16:9
Frame rate mode                          : Constant
Frame rate                               : 23.976 (24000/1001) FPS
Color space                              : YUV
Chroma subsampling                       : 4:2:0
Bit depth                                : 8 bits
Scan type                                : Progressive
Bits/(Pixel*Frame)                       : 0.107
Stream size                              : 909 MiB (80%)
Writing library                          : x264 core 152
Encoding settings                        : opencl=1 / cabac=1 / ref=4 / deblock=1:-2:-2 / analyse=0x3:0x113 / me=umh / subme=9 / psy=1 / psy_rd=0.70:0.00 / mixed_ref=0 / me_range=32 / chroma_me=1 / trellis=2 / 8x8dct=1 / cqm=0 / deadzone=21,11 / fast_pskip=1 / chroma_qp_offset=-2 / threads=8 / lookahead_threads=1 / sliced_threads=0 / nr=0 / decimate=1 / interlaced=0 / bluray_compat=0 / constrained_intra=0 / bframes=9 / b_pyramid=2 / b_adapt=2 / b_bias=0 / direct=3 / weightb=1 / open_gop=0 / weightp=2 / keyint=250 / keyint_min=23 / scenecut=40 / intra_refresh=0 / rc_lookahead=40 / rc=crf / mbtree=1 / crf=16.0 / qcomp=0.70 / qpmin=10 / qpmax=20 / qpstep=4 / ip_ratio=1.40 / aq=1:1.00
Default                                  : Yes
Forced                                   : No

Audio
ID                                       : 2
Format                                   : FLAC
Format/Info                              : Free Lossless Audio Codec
Codec ID                                 : A_FLAC
Duration                                 : 23 min 52 s
Bit rate mode                            : Variable
Bit rate                                 : 1 359 kb/s
Channel(s)                               : 2 channels
Channel layout                           : L R
Sampling rate                            : 48.0 kHz
Frame rate                               : 10.417 FPS (4608 SPF)
Bit depth                                : 24 bits
Compression mode                         : Lossless
Stream size                              : 232 MiB (20%)
Writing library                          : Lavf57.83.100
Language                                 : Japanese
Default                                  : Yes
Forced                                   : No

Text
ID                                       : 3
Format                                   : ASS
Codec ID                                 : S_TEXT/ASS
Codec ID/Info                            : Advanced Sub Station Alpha
Duration                                 : 23 min 44 s
Bit rate                                 : 959 b/s
Count of elements                        : 1617
Compression mode                         : Lossless
Stream size                              : 167 KiB (0%)
Title                                    : [ToishY] English
Language                                 : English
Default                                  : Yes
Forced                                   : No

Other Files in this Torrent
[ToishY] Owarimonogatari 2nd Season - Ougi Dark - Part 1 (BDRip 1920x1080 x264 FLAC).mkv
beta
Anime DDL+NZB mirror
Current Time: 05/12/2021 10:18



About/FAQs

Discord