Sword Art Online Progressive Movie - Hoshi Naki Yoru no Aria/[Cleo]Sword_Art_Online_Progressive_Movie_-_Hoshi_Naki_Yoru_no_Aria_(Dual Audio_10bit_BD1080p_x265).mkv


File Size1.927 GB (2,069,599,832 bytes)
DownloadClickNUpload | GoFile | MdiaLoad
DownloadGG: Part1, Part2
KrakenFiles: Part1, Part2
MultiUp: Part1
  • BdUpload
  • DownAce
  • Fichier
  • FileCloud
  • Filerio
  • FilesCdn
  • IndiShare
  • Kbagi
  • Turbobit
  • UpToBox
  • Uppit
, Part2
  • BdUpload
  • DownAce
  • Fichier
  • FileCloud
  • Filerio
  • FilesCdn
  • IndiShare
  • Kbagi
  • Turbobit
  • UpToBox
  • Uppit
, Part3
  • BdUpload
  • DownAce
  • Fichier
  • FileCloud
  • Filerio
  • FilesCdn
  • IndiShare
  • Kbagi
  • Turbobit
  • UpToBox
  • Uppit
, Part4
  • BdUpload
  • DownAce
  • Fichier
  • FileCloud
  • Filerio
  • FilesCdn
  • IndiShare
  • Kbagi
  • Turbobit
  • UpToBox
  • Uppit
HashesCRC32: 3B3E1FF9, MD5: 3DD0E95B6BB774301E31DD894E944791, SHA1: EB3362FB4836D9DA88F3E746106415AF4DB41B07, SHA256: F074DF1663096C48A481ABC46CB6E2CADCBD5F9677D2C5DB2511B007BE1D829D, ED2K: 275D9B9592BB840ABBCF6D626A6D543D
Screenshots
screenshotscreenshotscreenshotscreenshotscreenshot
SubtitlesAll Attachments | eng [ASS], eng [ASS], eng [PGS], jpn [PGS]
Additional Info
General
Unique ID                                : 215426156223079967797075573228447967754 (0xA2119189B3E785C7236AB36543DFAA0A)
Complete name                            : [Cleo]Sword_Art_Online_Progressive_Movie_-_Hoshi_Naki_Yoru_no_Aria_(Dual Audio_10bit_BD1080p_x265).mkv
Format                                   : Matroska
Format version                           : Version 4
File size                                : 1.93 GiB
Duration                                 : 1 h 37 min
Overall bit rate                         : 2 835 kb/s
Encoded date                             : UTC 2022-11-26 03:19:30
Writing application                      : mkvmerge v66.0.0 ('Josie') 64-bit
Writing library                          : libebml v1.4.2 + libmatroska v1.6.4
Attachments                              : ARIAL-BOLDMT-STR.ttf / CORPID.otf / FUTURAROUND-MEDIUM.ttf / GandhiSans-Bold_0.otf / GandhiSans-BoldItalic_0.otf / HELVETICANEUELT-ROMAN.ttf / LHF Scriptana.ttf / QUADRAAT-BOLD.otf / TODAYSHOP-LIGHT.otf / ARIAL-BOLDMT-STR.TTF / CORPID.OTF / FUTURAROUND-MEDIUM.TTF / HELVETICANEUELT-ROMAN.TTF / QUADRAAT-BOLD.OTF / TODAYSHOP-LIGHT.OTF

Video
ID                                       : 1
Format                                   : HEVC
Format/Info                              : High Efficiency Video Coding
Format profile                           : Main 10@L6.2@High
Codec ID                                 : V_MPEGH/ISO/HEVC
Duration                                 : 1 h 37 min
Bit rate                                 : 2 257 kb/s
Width                                    : 1 920 pixels
Height                                   : 1 080 pixels
Display aspect ratio                     : 16:9
Frame rate mode                          : Constant
Frame rate                               : 23.976 (24000/1001) FPS
Color space                              : YUV
Chroma subsampling                       : 4:2:0
Bit depth                                : 10 bits
Bits/(Pixel*Frame)                       : 0.045
Stream size                              : 1.53 GiB (79%)
Writing library                          : x265 2.5+14-2718cb5dd67f:[Windows][GCC 7.1.0][64 bit] 10bit
Encoding settings                        : cpuid=1173503 / frame-threads=4 / numa-pools=24 / wpp / pmode / no-pme / no-psnr / no-ssim / log-level=2 / input-csp=1 / input-res=1920x1080 / interlace=0 / total-frames=139566 / level-idc=62 / high-tier=1 / uhd-bd=0 / ref=3 / no-allow-non-conformance / no-repeat-headers / annexb / no-aud / no-hrd / info / hash=0 / no-temporal-layers / open-gop / min-keyint=23 / keyint=250 / bframes=4 / b-adapt=2 / b-pyramid / bframe-bias=0 / rc-lookahead=20 / lookahead-slices=6 / scenecut=40 / no-intra-refresh / ctu=64 / min-cu-size=8 / no-rect / no-amp / max-tu-size=32 / tu-inter-depth=1 / tu-intra-depth=1 / limit-tu=0 / rdoq-level=0 / dynamic-rd=0.00 / no-ssim-rd / signhide / no-tskip / nr-intra=0 / nr-inter=0 / no-constrained-intra / strong-intra-smoothing / max-merge=2 / limit-refs=0 / no-limit-modes / me=1 / subme=2 / merange=57 / temporal-mvp / weightp / no-weightb / no-analyze-src-pics / deblock=0:0 / sao / no-sao-non-deblock / rd=3 / no-early-skip / rskip / no-fast-intra / no-tskip-fast / no-cu-lossless / no-b-intra / no-splitrd-skip / rdpenalty=0 / psy-rd=2.00 / psy-rdoq=0.00 / no-rd-refine / analysis-reuse-mode=0 / no-lossless / cbqpoffs=0 / crqpoffs=0 / rc=crf / crf=22.0 / qcomp=0.60 / qpstep=4 / stats-write=0 / stats-read=0 / vbv-maxrate=800000 / vbv-bufsize=800000 / vbv-init=0.9 / crf-max=0.0 / crf-min=0.0 / ipratio=1.40 / pbratio=1.30 / aq-mode=2 / aq-strength=1.00 / cutree / zone-count=0 / no-strict-cbr / qg-size=32 / no-rc-grain / qpmax=69 / qpmin=0 / no-const-vbv / sar=0 / overscan=0 / videoformat=5 / range=0 / colorprim=2 / transfer=2 / colormatrix=2 / chromaloc=0 / display-window=0 / max-cll=0,0 / min-luma=0 / max-luma=1023 / log2-max-poc-lsb=8 / vui-timing-info / vui-hrd-info / slices=1 / opt-qp-pps / opt-ref-list-length-pps / no-multi-pass-opt-rps / scenecut-bias=0.05 / no-opt-cu-delta-qp / no-aq-motion / no-hdr / no-hdr-opt / no-dhdr10-opt / analysis-reuse-level=5 / scale-factor=0 / refine-intra=0 / refine-inter=0 / refine-mv=0 / no-limit-sao / ctu-info=0
Default                                  : Yes
Forced                                   : No

Audio #1
ID                                       : 2
Format                                   : AAC LC
Format/Info                              : Advanced Audio Codec Low Complexity
Codec ID                                 : A_AAC-2
Duration                                 : 1 h 37 min
Bit rate                                 : 128 kb/s
Channel(s)                               : 2 channels
Channel layout                           : L R
Sampling rate                            : 44.1 kHz
Frame rate                               : 43.066 FPS (1024 SPF)
Compression mode                         : Lossy
Delay relative to video                  : 1 s 0 ms
Stream size                              : 89.1 MiB (5%)
Language                                 : English
Default                                  : Yes
Forced                                   : No

Audio #2
ID                                       : 3
Format                                   : AAC LC
Format/Info                              : Advanced Audio Codec Low Complexity
Codec ID                                 : A_AAC-2
Duration                                 : 1 h 37 min
Bit rate                                 : 417 kb/s
Channel(s)                               : 8 channels
Channel layout                           : C L R Ls Rs Lw Rw LFE
Sampling rate                            : 48.0 kHz
Frame rate                               : 46.875 FPS (1024 SPF)
Compression mode                         : Lossy
Delay relative to video                  : 9 ms
Stream size                              : 290 MiB (15%)
Language                                 : Japanese
Default                                  : No
Forced                                   : No

Text #1
ID                                       : 4
Format                                   : ASS
Codec ID                                 : S_TEXT/ASS
Codec ID/Info                            : Advanced Sub Station Alpha
Duration                                 : 1 h 33 min
Bit rate                                 : 346 b/s
Count of elements                        : 1142
Compression mode                         : Lossless
Stream size                              : 238 KiB (0%)
Language                                 : English
Default                                  : Yes
Forced                                   : No

Text #2
ID                                       : 5
Format                                   : ASS
Codec ID                                 : S_TEXT/ASS
Codec ID/Info                            : Advanced Sub Station Alpha
Duration                                 : 1 h 36 min
Bit rate                                 : 430 b/s
Count of elements                        : 2265
Compression mode                         : Lossless
Stream size                              : 303 KiB (0%)
Language                                 : English
Default                                  : No
Forced                                   : No

Text #3
ID                                       : 6
Format                                   : PGS
Muxing mode                              : zlib
Codec ID                                 : S_HDMV/PGS
Codec ID/Info                            : Picture based subtitle format used on BDs/HD-DVDs
Duration                                 : 1 h 36 min
Bit rate                                 : 48.2 kb/s
Count of elements                        : 2324
Stream size                              : 33.2 MiB (2%)
Language                                 : English
Default                                  : No
Forced                                   : No

Text #4
ID                                       : 7
Format                                   : PGS
Muxing mode                              : zlib
Codec ID                                 : S_HDMV/PGS
Codec ID/Info                            : Picture based subtitle format used on BDs/HD-DVDs
Duration                                 : 1 h 36 min
Bit rate                                 : 42.9 kb/s
Count of elements                        : 2971
Stream size                              : 29.5 MiB (1%)
Language                                 : Japanese
Default                                  : No
Forced                                   : No

Menu
00:00:00.000                             : en:Chapter 01
00:00:18.768                             : en:Chapter 02
00:02:52.839                             : en:Chapter 03
00:05:44.344                             : en:Chapter 04
00:12:04.140                             : en:Chapter 05
00:17:02.271                             : en:Chapter 06
00:18:41.620                             : en:Chapter 07
00:27:15.759                             : en:Chapter 08
00:29:44.032                             : en:Chapter 09
00:33:49.027                             : en:Chapter 10
00:39:24.195                             : en:Chapter 11
00:41:42.374                             : en:Chapter 12
00:44:26.955                             : en:Chapter 13
00:48:54.056                             : en:Chapter 14
00:51:05.395                             : en:Chapter 15
00:56:16.623                             : en:Chapter 16
01:01:49.789                             : en:Chapter 17
01:04:59.562                             : en:Chapter 18
01:10:35.564                             : en:Chapter 19
01:13:13.472                             : en:Chapter 20
01:16:06.436                             : en:Chapter 21
01:20:19.564                             : en:Chapter 22
01:25:20.782                             : en:Chapter 23
01:33:05.788                             : en:Chapter 24
beta
Anime DDL+NZB mirror
Current Time: 17/04/2024 02:27



About/FAQs

Discord