File Size582.5 MB (610,811,285 bytes)
DownloadAnonFiles | ClickNUpload | DropAPK | Free
MultiUp: Part1
  • BdUpload
  • DownAce
  • Fichier
  • FileCloud
  • Filerio
  • FilesCdn
  • IndiShare
  • Kbagi
  • Turbobit
  • UpToBox
  • Uppit
, Part2
  • BdUpload
  • DownAce
  • Fichier
  • FileCloud
  • Filerio
  • FilesCdn
  • IndiShare
  • Kbagi
  • Turbobit
  • UpToBox
  • Uppit

Sendspace: Part1, Part2
SolidFiles: Part1, Part2
ZippyShare: Part1, Part2
HashesCRC32: 27F6133D, MD5: E6B3D45E03638B3026A4BFF1B9122774, SHA1: FDBC833B827303DA00607D169C5F259AA28E0785, SHA256: 1963C2412AA0E56B0B5E4B890EB6113C4BA3488FDEC6A5D945E0E9BA228D42CE, ED2K: 3A72F8F2A450144A26A9647F156084A4
Screenshots
screenshotscreenshotscreenshotscreenshotscreenshot
Additional Info
General
Complete name                            : Sword Art Online - Alicization - War of Underworld - 11 - Heartless Choice [KaiDubs] [720p].mp4
Format                                   : MPEG-4
Format profile                           : Base Media
Codec ID                                 : isom (isom/iso2/avc1/mp41)
File size                                : 583 MiB
Duration                                 : 22 min 46 s
Overall bit rate mode                    : Variable
Overall bit rate                         : 3 576 kb/s
Movie name                               : Ripped by KaiDubs
Writing application                      : Lavf58.40.100

Video
ID                                       : 1
Format                                   : AVC
Format/Info                              : Advanced Video Codec
Format profile                           : Main@L3.1
Format settings                          : CABAC / 4 Ref Frames
Format settings, CABAC                   : Yes
Format settings, ReFrames                : 4 frames
Format settings, GOP                     : M=3, N=60
Codec ID                                 : avc1
Codec ID/Info                            : Advanced Video Coding
Duration                                 : 22 min 46 s
Bit rate                                 : 3 441 kb/s
Width                                    : 1 280 pixels
Height                                   : 720 pixels
Display aspect ratio                     : 16:9
Frame rate mode                          : Variable
Frame rate                               : 29.970 (29970/1000) FPS
Minimum frame rate                       : 29.960 FPS
Maximum frame rate                       : 29.970 FPS
Color space                              : YUV
Chroma subsampling                       : 4:2:0
Bit depth                                : 8 bits
Scan type                                : Progressive
Bits/(Pixel*Frame)                       : 0.125
Stream size                              : 561 MiB (96%)
Title                                    : Adult Swim
Language                                 : English
Codec configuration box                  : avcC

Audio
ID                                       : 2
Format                                   : AAC LC
Format/Info                              : Advanced Audio Codec Low Complexity
Codec ID                                 : mp4a-40-2
Duration                                 : 22 min 46 s
Bit rate mode                            : Constant
Bit rate                                 : 126 kb/s
Channel(s)                               : 2 channels
Channel layout                           : L R
Sampling rate                            : 44.1 kHz
Frame rate                               : 43.066 FPS (1024 SPF)
Compression mode                         : Lossy
Stream size                              : 20.5 MiB (4%)
Title                                    : 2.0 AAC
Language                                 : English
Default                                  : Yes
Alternate group                          : 1

Text
ID                                       : 3
Format                                   : Timed Text
Muxing mode                              : sbtl
Codec ID                                 : tx3g
Duration                                 : 22 min 37 s
Bit rate mode                            : Variable
Bit rate                                 : 101 b/s
Stream size                              : 16.7 KiB (0%)
Title                                    : Closed Captions
Language                                 : English
Default                                  : Yes
Forced                                   : No
Alternate group                          : 3

Other Files in this Torrent
Sword Art Online - Alicization - War of Underworld - 11 - Heartless Choice [KaiDubs] [720p].mp4
beta
Anime DDL+NZB mirror
Current Time: 18/05/2024 10:18



About/FAQs

Discord