[Some-Stuffs] Pocket Monsters (2023) 032 (1080p) [C0D89D6E].mkv


File Size621.1 MB (651,317,682 bytes)
DownloadClickNUpload | DailyUploads | DownloadGG | GoFile | KrakenFiles | MdiaLoad | Uppit
MultiUp: Part1
  • BdUpload
  • DownAce
  • Fichier
  • FileCloud
  • Filerio
  • FilesCdn
  • IndiShare
  • Kbagi
  • Turbobit
  • UpToBox
  • Uppit
, Part2
  • BdUpload
  • DownAce
  • Fichier
  • FileCloud
  • Filerio
  • FilesCdn
  • IndiShare
  • Kbagi
  • Turbobit
  • UpToBox
  • Uppit
HashesCRC32: C0D89D6E, MD5: 351F5D094AF176C3525C52BB1A98250A, SHA1: EEEDD160A082DB5BD03F24FF41A8FDD6B5C27AD7, SHA256: 2845A275D458A74BD7EE6A24187CB471C03DF241B6C90F34D2B5E784FDD3CB81, ED2K: 0CA2D8F81EA998508B89454EBF4E23F4
Screenshots
screenshotscreenshotscreenshotscreenshotscreenshot
SubtitlesAll Attachments | eng [ASS]
Additional Info
General
Unique ID                                : 127835964307316395258904487766963392443 (0x602C4FA85F50F540630323361D320FBB)
Complete name                            : [Some-Stuffs] Pocket Monsters (2023) 032 (1080p) [C0D89D6E].mkv
Format                                   : Matroska
Format version                           : Version 4
File size                                : 621 MiB
Duration                                 : 24 min 31 s
Overall bit rate                         : 3 542 kb/s
Frame rate                               : 23.976 FPS
Encoded date                             : 2023-12-09 00:17:01 UTC
Writing application                      : mkvmerge v81.0 ('Milliontown') 64-bit
Writing library                          : libebml v1.4.4 + libmatroska v1.7.1
Attachments                              : candarab.ttf / candaraz.ttf / CantedFX Bold.otf / FOT-RowdyStd-EB.otf / FOT-SlumpStd-DB.otf / itc-bolt-bold.otf / Marker SD.ttf / PmLogo2023.ttf / RodinNTLGPro-B-Str.otf / Waukegan LDO Bold Oblique.ttf / Waukegan LDO Bold.ttf

Video
ID                                       : 1
Format                                   : AVC
Format/Info                              : Advanced Video Codec
Format profile                           : High@L4
Format settings                          : CABAC / 4 Ref Frames
Format settings, CABAC                   : Yes
Format settings, Reference frames        : 4 frames
Codec ID                                 : V_MPEG4/ISO/AVC
Duration                                 : 24 min 30 s
Bit rate                                 : 3 282 kb/s
Width                                    : 1 920 pixels
Height                                   : 1 080 pixels
Display aspect ratio                     : 16:9
Frame rate mode                          : Constant
Frame rate                               : 23.976 (24000/1001) FPS
Color space                              : YUV
Chroma subsampling                       : 4:2:0
Bit depth                                : 8 bits
Scan type                                : Progressive
Bits/(Pixel*Frame)                       : 0.066
Stream size                              : 575 MiB (93%)
Default                                  : Yes
Forced                                   : No
Color range                              : Limited
Color primaries                          : BT.709
Transfer characteristics                 : BT.709
Matrix coefficients                      : BT.709

Audio
ID                                       : 2
Format                                   : E-AC-3
Format/Info                              : Enhanced AC-3
Commercial name                          : Dolby Digital Plus
Codec ID                                 : A_EAC3
Duration                                 : 24 min 31 s
Bit rate mode                            : Constant
Bit rate                                 : 224 kb/s
Channel(s)                               : 2 channels
Channel layout                           : L R
Sampling rate                            : 48.0 kHz
Frame rate                               : 31.250 FPS (1536 SPF)
Compression mode                         : Lossy
Stream size                              : 39.3 MiB (6%)
Language                                 : Japanese
Service kind                             : Complete Main
Default                                  : Yes
Forced                                   : No

Text
ID                                       : 3
Format                                   : ASS
Codec ID                                 : S_TEXT/ASS
Codec ID/Info                            : Advanced Sub Station Alpha
Duration                                 : 24 min 26 s
Bit rate                                 : 645 b/s
Frame rate                               : 0.662 FPS
Count of elements                        : 971
Compression mode                         : Lossless
Stream size                              : 116 KiB (0%)
Language                                 : English
Default                                  : Yes
Forced                                   : No

Menu
00:00:00.000                             : Part A
00:01:34.428                             : Opening
00:03:04.518                             : Part B
00:10:53.570                             : Part C
00:21:45.596                             : Ending
00:23:15.561                             : Preview
00:23:45.507                             : Terapagos's Sparkly Exploration Diary
beta
Anime DDL+NZB mirror
Current Time: 14/06/2024 19:04



About/FAQs

Discord