File Size203.0 MB (212,814,804 bytes)
DownloadAnonFiles | ClickNUpload | DropAPK | Free | MultiUp
  • BdUpload
  • DownAce
  • Fichier
  • FileCloud
  • Filerio
  • FilesCdn
  • IndiShare
  • Kbagi
  • Turbobit
  • UpToBox
  • Uppit
| Sendspace | SolidFiles | ZippyShare
HashesCRC32: F6CF1789, MD5: 5B5B3003D3532768F4A06CADE4567B06, SHA1: 7AD6D3F9FEA8A68E8DF8C0C80565CF5A0E8CF455, SHA256: 19533F90E059EB4990B5815D8B1934148CD6B938B173D2440E7638360DA5825B, ED2K: 935CE4DC18A971CE052A09334604E941
Screenshots
screenshotscreenshotscreenshotscreenshotscreenshot
SubtitlesAll Attachments | und [ASS]
Additional Info
General
Unique ID                                : 42883795096059385929514963452543121329 (0x20431E56B35CED589938213C38A837B1)
Complete name                            : [Some-Stuffs]_Pocket_Monsters_020_(480p)_[F6CF1789].mkv
Format                                   : Matroska
Format version                           : Version 4
File size                                : 203 MiB
Duration                                 : 22 min 50 s
Overall bit rate                         : 1 243 kb/s
Encoded date                             : UTC 2020-04-01 09:31:54
Writing application                      : mkvmerge v40.0.0 ('Old Town Road + Pony') 32-bit
Writing library                          : libebml v1.3.9 + libmatroska v1.5.2
Attachments                              : A-OTF Gothic MB101 Pr5 B.otf / Candarai.ttf / Candaraz.ttf / Candara.ttf / Candarab.ttf / nintendoP_Humming-E_003.ttf / HummingMod_nojapanese.otf

Video
ID                                       : 1
Format                                   : AVC
Format/Info                              : Advanced Video Codec
Format profile                           : High@L3.2
Format settings                          : CABAC / 16 Ref Frames
Format settings, CABAC                   : Yes
Format settings, ReFrames                : 16 frames
Codec ID                                 : V_MPEG4/ISO/AVC
Duration                                 : 22 min 49 s
Bit rate                                 : 1 048 kb/s
Width                                    : 640 pixels
Height                                   : 480 pixels
Display aspect ratio                     : 4:3
Frame rate mode                          : Constant
Frame rate                               : 23.976 (24000/1001) FPS
Color space                              : YUV
Chroma subsampling                       : 4:2:0
Bit depth                                : 8 bits
Scan type                                : Progressive
Bits/(Pixel*Frame)                       : 0.142
Stream size                              : 171 MiB (84%)
Writing library                          : x264 core 157 r2935 545de2f
Encoding settings                        : cabac=1 / ref=16 / deblock=1:0:0 / analyse=0x3:0x133 / me=umh / subme=10 / psy=1 / psy_rd=0.40:0.00 / mixed_ref=1 / me_range=40 / chroma_me=1 / trellis=2 / 8x8dct=1 / cqm=0 / deadzone=21,11 / fast_pskip=0 / chroma_qp_offset=-4 / threads=4 / lookahead_threads=1 / sliced_threads=0 / nr=0 / decimate=1 / interlaced=0 / bluray_compat=0 / constrained_intra=0 / bframes=16 / b_pyramid=2 / b_adapt=2 / b_bias=0 / direct=1 / weightb=1 / open_gop=0 / weightp=2 / keyint=300 / keyint_min=24 / scenecut=40 / intra_refresh=0 / rc_lookahead=60 / rc=crf / mbtree=1 / crf=17.0 / qcomp=0.60 / qpmin=0 / qpmax=69 / qpstep=4 / ip_ratio=1.40 / aq=1:1.00
Language                                 : Japanese
Default                                  : Yes
Forced                                   : No

Audio
ID                                       : 2
Format                                   : AAC LC
Format/Info                              : Advanced Audio Codec Low Complexity
Codec ID                                 : A_AAC-2
Duration                                 : 22 min 50 s
Bit rate                                 : 127 kb/s
Channel(s)                               : 2 channels
Channel layout                           : L R
Sampling rate                            : 48.0 kHz
Frame rate                               : 46.875 FPS (1024 SPF)
Compression mode                         : Lossy
Stream size                              : 20.7 MiB (10%)
Language                                 : Japanese
Default                                  : Yes
Forced                                   : No

Text
ID                                       : 3
Format                                   : ASS
Codec ID                                 : S_TEXT/ASS
Codec ID/Info                            : Advanced Sub Station Alpha
Duration                                 : 22 min 49 s
Bit rate                                 : 167 b/s
Count of elements                        : 437
Compression mode                         : Lossless
Stream size                              : 28.1 KiB (0%)
Default                                  : Yes
Forced                                   : No

Menu
00:00:00.000                             : :Opening
00:01:28.046                             : :Part A
00:11:22.973                             : :Part B
00:20:58.966                             : :Ending
00:22:19.942                             : :Preview
beta
Anime DDL+NZB mirror
Current Time: 14/06/2024 20:02



About/FAQs

Discord