File Size50.92 MB (53,391,718 bytes)
DownloadAnonFiles | ClickNUpload | DropAPK | Free | MultiUp
  • BdUpload
  • DownAce
  • Fichier
  • FileCloud
  • Filerio
  • FilesCdn
  • IndiShare
  • Kbagi
  • Turbobit
  • UpToBox
  • Uppit
| SolidFiles | ZippyShare
HashesCRC32: 1DE830E6, MD5: FF1799F50A3F913115C5254065A3D7F2, SHA1: 5883179C362783857BB7895CEA108FE4FF17B526, SHA256: 07EBCAC4B50CB37B9FA422FA921FE7442DE24E6D3EEC5CA9621A6EA65DCF43EA, ED2K: 5E6AB44C53920E874B587D9DE40D5FF4
Screenshots
screenshotscreenshotscreenshotscreenshotscreenshot
SubtitlesAll Attachments | English subs [eng, ASS]
Additional Info
General
Unique ID                                : 180512814240966432379540668290356469629 (0x87CD80E0BCE982CDB5047CB1110FDF7D)
Complete name                            : [SSA] Yami Shibai 8 - 05 [1080p].mkv
Format                                   : Matroska
Format version                           : Version 4
File size                                : 50.9 MiB
Duration                                 : 4 min 34 s
Overall bit rate                         : 1 559 kb/s
Writing application                      : Lavf58.65.101
Writing library                          : Lavf58.65.101
ErrorDetectionType                       : Per level 1
ENCODER_SETTINGS                         : Redacted, CPU - 2xAMD EPYC 7282 32 cores/64 threads, GPU - None used

Video
ID                                       : 1
Format                                   : HEVC
Format/Info                              : High Efficiency Video Coding
Format profile                           : Main@L4@Main
Codec ID                                 : V_MPEGH/ISO/HEVC
Duration                                 : 4 min 34 s
Bit rate                                 : 7 971 kb/s
Width                                    : 1 920 pixels
Height                                   : 1 080 pixels
Display aspect ratio                     : 16:9
Frame rate mode                          : Variable
Frame rate                               : 23.976 (23976/1000) FPS
Original frame rate                      : 23.976 (24000/1001) FPS
Color space                              : YUV
Chroma subsampling                       : 4:2:0
Bit depth                                : 8 bits
Bits/(Pixel*Frame)                       : 0.160
Stream size                              : 260 MiB
Writing library                          : Lavc58.115.102 libx265
Default                                  : Yes
Forced                                   : No
Color range                              : Limited
Color primaries                          : BT.709
Transfer characteristics                 : BT.709
Matrix coefficients                      : BT.709

Audio
ID                                       : 2
Format                                   : AAC LC
Format/Info                              : Advanced Audio Codec Low Complexity
Codec ID                                 : A_AAC-2
Duration                                 : 4 min 34 s
Bit rate                                 : 128 kb/s
Channel(s)                               : 2 channels
Channel layout                           : L R
Sampling rate                            : 44.1 kHz
Frame rate                               : 43.066 FPS (1024 SPF)
Compression mode                         : Lossy
Stream size                              : 4.18 MiB (8%)
Writing library                          : Lavc58.115.102 aac
Language                                 : Japanese
Default                                  : Yes
Forced                                   : No

Text
ID                                       : 3
Format                                   : ASS
Codec ID                                 : S_TEXT/ASS
Codec ID/Info                            : Advanced Sub Station Alpha
Duration                                 : 4 min 2 s
Bit rate                                 : 105 b/s
Count of elements                        : 51
Compression mode                         : Lossless
Stream size                              : 2.99 KiB (0%)
Title                                    : English subs
Writing library                          : Lavc58.115.102 ssa
Language                                 : English
Default                                  : Yes
Forced                                   : No

Other Files in this Torrent
[SSA] Yami Shibai 8 - 05 [1080p].mkv
beta
Anime DDL+NZB mirror
Current Time: 22/02/2024 20:48



About/FAQs

Discord