File Size232.0 MB (243,218,282 bytes)
DownloadAnonFiles | ClickNUpload | DropAPK | Free | MultiUp
  • BdUpload
  • DownAce
  • Fichier
  • FileCloud
  • Filerio
  • FilesCdn
  • IndiShare
  • Kbagi
  • Turbobit
  • UpToBox
  • Uppit
| SolidFiles | ZippyShare
HashesCRC32: 43B342D7, MD5: 3A78EC48CA4591450410F5DE71D34960, SHA1: 7FBFF0A755447E0F7CEB6CB48C40D759A4C69FB9, SHA256: BE5B592D8A5F8A8F9FDFA90F998C2F816CFEF722164501C37519F0BBAA9AA241, ED2K: F01C37619C48FE972099E16F46C6B0ED
Screenshots
screenshotscreenshotscreenshotscreenshotscreenshot
SubtitlesAll Attachments | eng [ASS]
Additional Info
General
Unique ID                                : 276386122681704804753139354194549897794 (0xCFEE07EEDE10D61DD073113BC3BF7A42)
Complete name                            : [SSA] One Punch Man S2 - 12 [720p].mkv
Format                                   : Matroska
Format version                           : Version 4
File size                                : 232 MiB
Duration                                 : 23 min 50 s
Overall bit rate                         : 1 361 kb/s
Writing application                      : Lavf58.65.101
Writing library                          : Lavf58.65.101
ErrorDetectionType                       : Per level 1
ENCODER_SETTINGS                         : Redacted, CPU - 2xAMD EPYC 7282 32 cores/64 threads, GPU - None used

Video
ID                                       : 1
Format                                   : HEVC
Format/Info                              : High Efficiency Video Coding
Format profile                           : Main@L3.1@Main
Codec ID                                 : V_MPEGH/ISO/HEVC
Duration                                 : 23 min 50 s
Bit rate                                 : 6 289 kb/s
Width                                    : 1 280 pixels
Height                                   : 720 pixels
Display aspect ratio                     : 16:9
Frame rate mode                          : Constant
Frame rate                               : 23.976 (23976/1000) FPS
Original frame rate                      : 23.976 (24000/1001) FPS
Color space                              : YUV
Chroma subsampling                       : 4:2:0
Bit depth                                : 8 bits
Bits/(Pixel*Frame)                       : 0.285
Stream size                              : 1.05 GiB
Writing library                          : Lavc58.115.102 libx265
Default                                  : Yes
Forced                                   : No
Color range                              : Limited
Color primaries                          : BT.709
Transfer characteristics                 : BT.709
Matrix coefficients                      : BT.709

Audio
ID                                       : 2
Format                                   : AAC LC
Format/Info                              : Advanced Audio Codec Low Complexity
Codec ID                                 : A_AAC-2
Duration                                 : 23 min 50 s
Bit rate                                 : 128 kb/s
Channel(s)                               : 2 channels
Channel layout                           : L R
Sampling rate                            : 44.1 kHz
Frame rate                               : 43.066 FPS (1024 SPF)
Compression mode                         : Lossy
Delay relative to video                  : -106 ms
Stream size                              : 21.8 MiB (9%)
Writing library                          : Lavc58.115.102 aac
Language                                 : Japanese
Default                                  : Yes
Forced                                   : No

Text
ID                                       : 3
Format                                   : ASS
Codec ID                                 : S_TEXT/ASS
Codec ID/Info                            : Advanced Sub Station Alpha
Duration                                 : 23 min 45 s
Bit rate                                 : 116 b/s
Count of elements                        : 309
Compression mode                         : Lossless
Stream size                              : 20.3 KiB (0%)
Writing library                          : Lavc58.115.102 ssa
Language                                 : English
Default                                  : Yes
Forced                                   : No

Other Files in this Torrent
[SSA] One Punch Man S2 - 12 [720p].mkv
beta
Anime DDL+NZB mirror
Current Time: 01/08/2021 20:34



About/FAQs