File Size99.09 MB (103,901,332 bytes)
DownloadAnonFiles | ClickNUpload | DropAPK | Free | MultiUp
  • BdUpload
  • DownAce
  • Fichier
  • FileCloud
  • Filerio
  • FilesCdn
  • IndiShare
  • Kbagi
  • Turbobit
  • UpToBox
  • Uppit
| SolidFiles | ZippyShare
HashesCRC32: F8A9197D, MD5: 87381DCCF208FF9983D9DCCA2D675F2E, SHA1: D1865808726E5CC41C30070A8CD68CF3873A271E, SHA256: 49C4F304DF830616EC337F3D047A5E57C226F2B9951309DFAF0C848892DE0FD2, ED2K: 6A65A44455082717E5005090697F0987
Screenshots
screenshotscreenshotscreenshotscreenshotscreenshot
SubtitlesAll Attachments | eng [ASS]
Additional Info
General
Unique ID                                : 154190280152576478350652748481321548211 (0x73FFF7BFA39B2827F0D7FC739650B9B3)
Complete name                            : [SSA] One Punch Man S2 - 07 [480p].mkv
Format                                   : Matroska
Format version                           : Version 4
File size                                : 99.1 MiB
Duration                                 : 23 min 50 s
Overall bit rate                         : 581 kb/s
Writing application                      : Lavf58.65.101
Writing library                          : Lavf58.65.101
ErrorDetectionType                       : Per level 1
ENCODER_SETTINGS                         : Redacted, CPU - 2xAMD EPYC 7282 32 cores/64 threads, GPU - None used

Video
ID                                       : 1
Format                                   : HEVC
Format/Info                              : High Efficiency Video Coding
Format profile                           : Main@L3@Main
Codec ID                                 : V_MPEGH/ISO/HEVC
Duration                                 : 23 min 50 s
Bit rate                                 : 4 869 kb/s
Width                                    : 848 pixels
Height                                   : 480 pixels
Display aspect ratio                     : 16:9
Frame rate mode                          : Constant
Frame rate                               : 23.976 (23976/1000) FPS
Original frame rate                      : 23.976 (24000/1001) FPS
Color space                              : YUV
Chroma subsampling                       : 4:2:0
Bit depth                                : 8 bits
Bits/(Pixel*Frame)                       : 0.499
Stream size                              : 830 MiB
Writing library                          : Lavc58.115.102 libx265
Default                                  : Yes
Forced                                   : No
Color range                              : Limited
Color primaries                          : BT.709
Transfer characteristics                 : BT.709
Matrix coefficients                      : BT.709

Audio
ID                                       : 2
Format                                   : AAC LC
Format/Info                              : Advanced Audio Codec Low Complexity
Codec ID                                 : A_AAC-2
Duration                                 : 23 min 50 s
Bit rate                                 : 128 kb/s
Channel(s)                               : 2 channels
Channel layout                           : L R
Sampling rate                            : 44.1 kHz
Frame rate                               : 43.066 FPS (1024 SPF)
Compression mode                         : Lossy
Delay relative to video                  : -106 ms
Stream size                              : 21.8 MiB (22%)
Writing library                          : Lavc58.115.102 aac
Language                                 : Japanese
Default                                  : Yes
Forced                                   : No

Text
ID                                       : 3
Format                                   : ASS
Codec ID                                 : S_TEXT/ASS
Codec ID/Info                            : Advanced Sub Station Alpha
Duration                                 : 23 min 50 s
Bit rate                                 : 138 b/s
Count of elements                        : 365
Compression mode                         : Lossless
Stream size                              : 24.1 KiB (0%)
Writing library                          : Lavc58.115.102 ssa
Language                                 : English
Default                                  : Yes
Forced                                   : No

Other Files in this Torrent
[SSA] One Punch Man S2 - 07 [480p].mkv
beta
Anime DDL+NZB mirror
Current Time: 01/08/2021 20:39



About/FAQs