File Size278.7 MB (292,187,880 bytes)
DownloadAnonFiles | ClickNUpload | DropAPK | Free | MultiUp
  • BdUpload
  • DownAce
  • Fichier
  • FileCloud
  • Filerio
  • FilesCdn
  • IndiShare
  • Kbagi
  • Turbobit
  • UpToBox
  • Uppit
| SolidFiles | ZippyShare
HashesCRC32: 14C6A27A, MD5: 9092D736C88448C4812BE65A49DF3ED0, SHA1: 1F404CD1BD8FBD341E4E5AC02004B90ED50B1BC1, SHA256: B80F1C3C72BCC2A6B6087932936848A9247BEC5452A8962B6BD8E9D981EE65D7, ED2K: 95A0D23D9E039A265879AF39B3C67756
Screenshots
screenshotscreenshotscreenshotscreenshotscreenshot
SubtitlesAll Attachments | eng [ASS]
Additional Info
General
Unique ID                                : 56395751598564080660048450464740216191 (0x2A6D6D3A81B0A03DA798B65E67DB0D7F)
Complete name                            : [SSA] One Punch Man - 09 [1080p].mkv
Format                                   : Matroska
Format version                           : Version 4
File size                                : 279 MiB
Duration                                 : 24 min 25 s
Overall bit rate                         : 1 595 kb/s
Writing application                      : Lavf58.65.101
Writing library                          : Lavf58.65.101
ErrorDetectionType                       : Per level 1
ENCODER_SETTINGS                         : Redacted, CPU - 2xAMD EPYC 7282 32 cores/64 threads, GPU - None used

Video
ID                                       : 1
Format                                   : HEVC
Format/Info                              : High Efficiency Video Coding
Format profile                           : Main@L4@Main
Codec ID                                 : V_MPEGH/ISO/HEVC
Duration                                 : 24 min 25 s
Bit rate                                 : 5 244 kb/s
Width                                    : 1 920 pixels
Height                                   : 1 080 pixels
Display aspect ratio                     : 16:9
Frame rate mode                          : Variable
Frame rate                               : 23.976 FPS
Color space                              : YUV
Chroma subsampling                       : 4:2:0
Bit depth                                : 8 bits
Bits/(Pixel*Frame)                       : 0.105
Stream size                              : 916 MiB
Writing library                          : Lavc58.115.102 libx265
Default                                  : Yes
Forced                                   : No
Color range                              : Limited
Color primaries                          : BT.709
Transfer characteristics                 : BT.709
Matrix coefficients                      : BT.709

Audio
ID                                       : 2
Format                                   : AAC LC
Format/Info                              : Advanced Audio Codec Low Complexity
Codec ID                                 : A_AAC-2
Duration                                 : 24 min 25 s
Bit rate                                 : 192 kb/s
Channel(s)                               : 2 channels
Channel layout                           : L R
Sampling rate                            : 48.0 kHz
Frame rate                               : 46.875 FPS (1024 SPF)
Compression mode                         : Lossy
Stream size                              : 33.1 MiB (12%)
Writing library                          : Lavc58.115.102 aac
Language                                 : Japanese
Default                                  : Yes
Forced                                   : No

Text
ID                                       : 3
Format                                   : ASS
Codec ID                                 : S_TEXT/ASS
Codec ID/Info                            : Advanced Sub Station Alpha
Duration                                 : 24 min 25 s
Bit rate                                 : 94 b/s
Count of elements                        : 314
Compression mode                         : Lossless
Stream size                              : 16.9 KiB (0%)
Writing library                          : Lavc58.115.102 ssa
Language                                 : English
Default                                  : Yes
Forced                                   : No

Other Files in this Torrent
[SSA] One Punch Man - 09 [1080p].mkv
beta
Anime DDL+NZB mirror
Current Time: 25/10/2021 09:56



About/FAQs

Discord