File Size305.5 MB (320,292,120 bytes)
DownloadAnonFiles | ClickNUpload | DropAPK | Free | MultiUp
  • BdUpload
  • DownAce
  • Fichier
  • FileCloud
  • Filerio
  • FilesCdn
  • IndiShare
  • Kbagi
  • Turbobit
  • UpToBox
  • Uppit
| SolidFiles | ZippyShare
HashesCRC32: A02E342E, MD5: C7A079E8B23BBEDF39E21DE54EA1C3B6, SHA1: 8881D666A6062C32D5945CB60ED7681A0EE349EF, SHA256: CE4ED9E9C74D859F80A5D7A91264465DB1F0A198546E3315599EACE1FC5EFC1C, ED2K: DAAEA83AD6E0C2F953DBF577B9EB30E2
Screenshots
screenshotscreenshotscreenshotscreenshotscreenshot
SubtitlesAll Attachments | eng [ASS]
Additional Info
General
Unique ID                                : 199106275970113789561612011930246275054 (0x95CA79518D2EE6259A4586067AE55FEE)
Complete name                            : [SSA] One Punch Man - 12 [1080p].mkv
Format                                   : Matroska
Format version                           : Version 4
File size                                : 305 MiB
Duration                                 : 24 min 5 s
Overall bit rate                         : 1 773 kb/s
Writing application                      : Lavf58.65.101
Writing library                          : Lavf58.65.101
ErrorDetectionType                       : Per level 1
ENCODER_SETTINGS                         : Redacted, CPU - 2xAMD EPYC 7282 32 cores/64 threads, GPU - None used

Video
ID                                       : 1
Format                                   : HEVC
Format/Info                              : High Efficiency Video Coding
Format profile                           : Main@L4@Main
Codec ID                                 : V_MPEGH/ISO/HEVC
Duration                                 : 24 min 5 s
Bit rate                                 : 5 052 kb/s
Width                                    : 1 920 pixels
Height                                   : 1 080 pixels
Display aspect ratio                     : 16:9
Frame rate mode                          : Variable
Frame rate                               : 23.976 FPS
Color space                              : YUV
Chroma subsampling                       : 4:2:0
Bit depth                                : 8 bits
Bits/(Pixel*Frame)                       : 0.102
Stream size                              : 870 MiB
Writing library                          : Lavc58.115.102 libx265
Default                                  : Yes
Forced                                   : No
Color range                              : Limited
Color primaries                          : BT.709
Transfer characteristics                 : BT.709
Matrix coefficients                      : BT.709

Audio
ID                                       : 2
Format                                   : AAC LC
Format/Info                              : Advanced Audio Codec Low Complexity
Codec ID                                 : A_AAC-2
Duration                                 : 24 min 5 s
Bit rate                                 : 192 kb/s
Channel(s)                               : 2 channels
Channel layout                           : L R
Sampling rate                            : 48.0 kHz
Frame rate                               : 46.875 FPS (1024 SPF)
Compression mode                         : Lossy
Stream size                              : 32.6 MiB (11%)
Writing library                          : Lavc58.115.102 aac
Language                                 : Japanese
Default                                  : Yes
Forced                                   : No

Text
ID                                       : 3
Format                                   : ASS
Codec ID                                 : S_TEXT/ASS
Codec ID/Info                            : Advanced Sub Station Alpha
Duration                                 : 24 min 2 s
Bit rate                                 : 92 b/s
Count of elements                        : 309
Compression mode                         : Lossless
Stream size                              : 15.8 KiB (0%)
Writing library                          : Lavc58.115.102 ssa
Language                                 : English
Default                                  : Yes
Forced                                   : No

Other Files in this Torrent
[SSA] One Punch Man - 12 [1080p].mkv
beta
Anime DDL+NZB mirror
Current Time: 24/09/2021 09:39



About/FAQs