File Size154.2 MB (161,656,774 bytes)
DownloadAnonFiles | ClickNUpload | DropAPK | Free | MultiUp
  • BdUpload
  • DownAce
  • Fichier
  • FileCloud
  • Filerio
  • FilesCdn
  • IndiShare
  • Kbagi
  • Turbobit
  • UpToBox
  • Uppit
| SolidFiles | ZippyShare
HashesCRC32: 5CFC641C, MD5: 63B28A89CE15A029DF4D294BD6062751, SHA1: B72D601C678A6ABB90B64E089775809F24CC0950, SHA256: 92B6B6C8D3FFB123B64611C45CE5EFBD551981D0E6CBE50E502B2BA85B34D24E, ED2K: 726731CDDA5F255F1FFCDB6C56B07ABF
Screenshots
screenshotscreenshotscreenshotscreenshotscreenshot
Additional Info
General
Complete name                            : [SSA] Haikyuu!! To the Top 2nd Season - 07 [1080p].mp4
Format                                   : MPEG-4
Format profile                           : Base Media
Codec ID                                 : isom (isom/iso2/mp41)
File size                                : 154 MiB
Duration                                 : 23 min 57 s
Overall bit rate mode                    : Variable
Overall bit rate                         : 900 kb/s
Writing application                      : Lavf58.45.100

Video
ID                                       : 1
Format                                   : HEVC
Format/Info                              : High Efficiency Video Coding
Format profile                           : Main@L5@High
Codec ID                                 : hev1
Codec ID/Info                            : High Efficiency Video Coding
Duration                                 : 23 min 57 s
Bit rate                                 : 774 kb/s
Width                                    : 1 920 pixels
Height                                   : 1 080 pixels
Display aspect ratio                     : 16:9
Frame rate mode                          : Constant
Frame rate                               : 23.976 (24000/1001) FPS
Color space                              : YUV
Chroma subsampling                       : 4:2:0
Bit depth                                : 8 bits
Scan type                                : Progressive
Bits/(Pixel*Frame)                       : 0.016
Stream size                              : 133 MiB (86%)
Language                                 : Japanese
Color range                              : Limited
Color primaries                          : BT.709
Transfer characteristics                 : BT.709
Matrix coefficients                      : BT.709
Codec configuration box                  : hvcC

Audio
ID                                       : 2
Format                                   : AAC LC
Format/Info                              : Advanced Audio Codec Low Complexity
Codec ID                                 : mp4a-40-2
Duration                                 : 23 min 57 s
Bit rate mode                            : Variable
Bit rate                                 : 118 kb/s
Maximum bit rate                         : 128 kb/s
Channel(s)                               : 2 channels
Channel layout                           : L R
Sampling rate                            : 44.1 kHz
Frame rate                               : 43.066 FPS (1024 SPF)
Compression mode                         : Lossy
Stream size                              : 20.3 MiB (13%)
Language                                 : Japanese
Default                                  : Yes
Alternate group                          : 1

Other Files in this Torrent
[SSA] Haikyuu!! To the Top 2nd Season - 07 [1080p].mp4
beta
Anime DDL+NZB mirror
Current Time: 04/12/2021 06:57



About/FAQs

Discord