File Size186.2 MB (195,240,503 bytes)
DownloadAnonFiles | ClickNUpload | DropAPK | Free | MultiUp
  • BdUpload
  • DownAce
  • Fichier
  • FileCloud
  • Filerio
  • FilesCdn
  • IndiShare
  • Kbagi
  • Turbobit
  • UpToBox
  • Uppit
| SolidFiles | ZippyShare
HashesCRC32: 0F1A9787, MD5: 3D04E6023D94D83C2CCE985053017AF7, SHA1: 06D2B2BB8A15D4F055FCB8C0D3F1C46FB489D92C, SHA256: 1448F84D6509837FAB9AFC0B119C4E1A1810295642E8E766C66AACA0B4DAD582, ED2K: 8780D97511593457689EDBCB348DEFA3
Screenshots
screenshotscreenshotscreenshotscreenshotscreenshot
Additional Info
General
Complete name                            : [SSA] Haikyuu!! To the Top 2nd Season - 09 [1080p].mp4
Format                                   : MPEG-4
Format profile                           : Base Media
Codec ID                                 : isom (isom/iso2/mp41)
File size                                : 186 MiB
Duration                                 : 23 min 57 s
Overall bit rate mode                    : Variable
Overall bit rate                         : 1 087 kb/s
Writing application                      : Lavf58.64.100

Video
ID                                       : 1
Format                                   : HEVC
Format/Info                              : High Efficiency Video Coding
Format profile                           : Main@L5@High
Codec ID                                 : hev1
Codec ID/Info                            : High Efficiency Video Coding
Duration                                 : 23 min 57 s
Bit rate                                 : 966 kb/s
Width                                    : 1 920 pixels
Height                                   : 1 080 pixels
Display aspect ratio                     : 16:9
Frame rate mode                          : Constant
Frame rate                               : 23.976 (24000/1001) FPS
Color space                              : YUV
Chroma subsampling                       : 4:2:0
Bit depth                                : 8 bits
Scan type                                : Progressive
Bits/(Pixel*Frame)                       : 0.019
Stream size                              : 165 MiB (89%)
Language                                 : Japanese
Color range                              : Limited
Color primaries                          : BT.709
Transfer characteristics                 : BT.709
Matrix coefficients                      : BT.709
Codec configuration box                  : hvcC

Audio
ID                                       : 2
Format                                   : AAC LC
Format/Info                              : Advanced Audio Codec Low Complexity
Codec ID                                 : mp4a-40-2
Duration                                 : 23 min 57 s
Bit rate mode                            : Variable
Bit rate                                 : 113 kb/s
Maximum bit rate                         : 128 kb/s / 128 kb/s
Channel(s)                               : 2 channels
Channel layout                           : L R
Sampling rate                            : 44.1 kHz
Frame rate                               : 43.066 FPS (1024 SPF)
Compression mode                         : Lossy
Stream size                              : 19.4 MiB (10%)
Language                                 : Japanese
Default                                  : Yes
Alternate group                          : 1

Other Files in this Torrent
[SSA] Haikyuu!! To the Top 2nd Season - 09 [1080p].mp4
beta
Anime DDL+NZB mirror
Current Time: 04/12/2021 08:34



About/FAQs

Discord