File Size126.9 MB (133,027,198 bytes)
DownloadAnonFiles | ClickNUpload | DropAPK | Free | MultiUp
  • BdUpload
  • DownAce
  • Fichier
  • FileCloud
  • Filerio
  • FilesCdn
  • IndiShare
  • Kbagi
  • Turbobit
  • UpToBox
  • Uppit
| SolidFiles | ZippyShare
HashesCRC32: 1BEB5831, MD5: 6959A6D45F55CE1A244BEC953565DA8E, SHA1: E03EF0655B1D1710ADFAEB64D6EAC65A32B3184A, SHA256: 476D3F2CBB908923A06B8C4F354295D7248D2AF500BE3CE7648ED734D65F5E6D, ED2K: 1EC40B3025B3132C0AC93FFB4CA93478
Screenshots
screenshotscreenshotscreenshotscreenshotscreenshot
Additional Info
General
Complete name                            : [SSA] Haikyuu!! To the Top 2nd Season - 06 [720p].mp4
Format                                   : MPEG-4
Format profile                           : Base Media
Codec ID                                 : isom (isom/iso2/mp41)
File size                                : 127 MiB
Duration                                 : 23 min 57 s
Overall bit rate mode                    : Variable
Overall bit rate                         : 741 kb/s
Writing application                      : Lavf58.45.100

Video
ID                                       : 1
Format                                   : HEVC
Format/Info                              : High Efficiency Video Coding
Format profile                           : Main@L4@High
Codec ID                                 : hev1
Codec ID/Info                            : High Efficiency Video Coding
Duration                                 : 23 min 56 s
Bit rate                                 : 614 kb/s
Width                                    : 1 280 pixels
Height                                   : 720 pixels
Display aspect ratio                     : 16:9
Frame rate mode                          : Constant
Frame rate                               : 23.976 (24000/1001) FPS
Color space                              : YUV
Chroma subsampling                       : 4:2:0
Bit depth                                : 8 bits
Scan type                                : Progressive
Bits/(Pixel*Frame)                       : 0.028
Stream size                              : 105 MiB (83%)
Language                                 : Japanese
Color range                              : Limited
Color primaries                          : BT.709
Transfer characteristics                 : BT.709
Matrix coefficients                      : BT.709
Codec configuration box                  : hvcC

Audio
ID                                       : 2
Format                                   : AAC LC
Format/Info                              : Advanced Audio Codec Low Complexity
Codec ID                                 : mp4a-40-2
Duration                                 : 23 min 57 s
Bit rate mode                            : Variable
Bit rate                                 : 119 kb/s
Maximum bit rate                         : 128 kb/s
Channel(s)                               : 2 channels
Channel layout                           : L R
Sampling rate                            : 44.1 kHz
Frame rate                               : 43.066 FPS (1024 SPF)
Compression mode                         : Lossy
Stream size                              : 20.4 MiB (16%)
Language                                 : Japanese
Default                                  : Yes
Alternate group                          : 1

Other Files in this Torrent
[SSA] Haikyuu!! To the Top 2nd Season - 06 [720p].mp4
beta
Anime DDL+NZB mirror
Current Time: 04/12/2021 08:32



About/FAQs

Discord