File Size104.8 MB (109,901,926 bytes)
DownloadAnonFiles | ClickNUpload | DropAPK | Free | MultiUp
  • BdUpload
  • DownAce
  • Fichier
  • FileCloud
  • Filerio
  • FilesCdn
  • IndiShare
  • Kbagi
  • Turbobit
  • UpToBox
  • Uppit
| SolidFiles | ZippyShare
HashesCRC32: C02ED1B8, MD5: 0B8841D7C5F8BD1F58CB0AC2075AF56A, SHA1: A9CB5A30E53CF4C6DD9B2C62C03616D1C90B5C9D, SHA256: E47EF7373E68A04A47D5E079DCDC36E8A63CE2FB4427653F64A71A7D1698B0AD, ED2K: 889C90DA92FD5DB7A8BC3ED33664655D
Screenshots
screenshotscreenshotscreenshotscreenshotscreenshot
Additional Info
General
Complete name                            : [SSA] Haikyuu!! To the Top 2nd Season - 01 [720p].mp4
Format                                   : MPEG-4
Format profile                           : Base Media
Codec ID                                 : isom (isom/iso2/mp41)
File size                                : 105 MiB
Duration                                 : 23 min 57 s
Overall bit rate                         : 612 kb/s
Writing application                      : Lavf58.45.100

Video
ID                                       : 1
Format                                   : HEVC
Format/Info                              : High Efficiency Video Coding
Format profile                           : Main@L3.1@Main
Codec ID                                 : hev1
Codec ID/Info                            : High Efficiency Video Coding
Duration                                 : 23 min 57 s
Bit rate                                 : 492 kb/s
Width                                    : 1 280 pixels
Height                                   : 720 pixels
Display aspect ratio                     : 16:9
Frame rate mode                          : Constant
Frame rate                               : 23.976 (24000/1001) FPS
Color space                              : YUV
Chroma subsampling                       : 4:2:0
Bit depth                                : 8 bits
Scan type                                : Progressive
Bits/(Pixel*Frame)                       : 0.022
Stream size                              : 84.2 MiB (80%)
Color range                              : Limited
Color primaries                          : BT.709
Transfer characteristics                 : BT.709
Matrix coefficients                      : BT.709
Codec configuration box                  : hvcC

Audio
ID                                       : 2
Format                                   : AAC LC
Format/Info                              : Advanced Audio Codec Low Complexity
Codec ID                                 : mp4a-40-2
Duration                                 : 23 min 57 s
Bit rate mode                            : Constant
Bit rate                                 : 112 kb/s
Channel(s)                               : 2 channels
Channel layout                           : L R
Sampling rate                            : 44.1 kHz
Frame rate                               : 43.066 FPS (1024 SPF)
Compression mode                         : Lossy
Stream size                              : 19.3 MiB (18%)
Default                                  : Yes
Alternate group                          : 1

Other Files in this Torrent
[SSA] Haikyuu!! To the Top 2nd Season - 01 [720p].mp4
beta
Anime DDL+NZB mirror
Current Time: 04/12/2021 07:50



About/FAQs

Discord