File Size633.4 MB (664,192,903 bytes)
DownloadClickNUpload | DailyUploads | DownloadGG | GoFile | KrakenFiles | MdiaLoad | Uppit
MultiUp: Part1
  • BdUpload
  • DownAce
  • Fichier
  • FileCloud
  • Filerio
  • FilesCdn
  • IndiShare
  • Kbagi
  • Turbobit
  • UpToBox
  • Uppit
, Part2
  • BdUpload
  • DownAce
  • Fichier
  • FileCloud
  • Filerio
  • FilesCdn
  • IndiShare
  • Kbagi
  • Turbobit
  • UpToBox
  • Uppit
HashesCRC32: 2701859A, MD5: CE66B6682B90973357C74E30AE5C182E, SHA1: AA3AB6D6524BAECACB7808B321FBA79C89D8A0D1, SHA256: 7842403B02D2C1AD44B15588A5F5C7E588BF48C23D7955FD40CD989673059739, ED2K: 185142D4E2AA0A837340EB863ADAA850
Screenshots
screenshotscreenshotscreenshotscreenshotscreenshot
SubtitlesAll Attachments | eng [ASS]
Additional Info
General
Unique ID                                : 34731975161352174492218533599246719477 (0x1A212295DAB7D57B33F642CC9F8699F5)
Complete name                            : [somedroplet] Pokémon Horizons - 032 [2701859A].mkv
Format                                   : Matroska
Format version                           : Version 4
File size                                : 633 MiB
Duration                                 : 24 min 31 s
Overall bit rate                         : 3 612 kb/s
Frame rate                               : 23.976 FPS
Encoded date                             : 2023-12-10 00:02:47 UTC
Writing application                      : mkvmerge v52.0.0 ('Secret For The Mad') 64-bit
Writing library                          : libebml v1.4.1 + libmatroska v1.6.2
Attachments                              : HurmeGeometricSans3 SemiBold.otf / Open Sans Bold Italic.ttf / Open Sans Bold.ttf / Open Sans Italic.ttf / Open Sans.ttf / FOT-ManyoGyoshoStd-E.otf / FOT-RodinNTLGPro-B.otf / candarab.ttf / candaraz.ttf / CantedFX Bold.otf / FOT-RowdyStd-EB.otf / FOT-SlumpStd-DB.otf / itc-bolt-bold.otf / Marker SD.ttf / RodinNTLGPro-B-Str.otf / Waukegan LDO Bold Oblique.ttf / Waukegan LDO Bold.ttf

Video
ID                                       : 1
Format                                   : AVC
Format/Info                              : Advanced Video Codec
Format profile                           : High@L4
Format settings                          : CABAC / 4 Ref Frames
Format settings, CABAC                   : Yes
Format settings, Reference frames        : 4 frames
Codec ID                                 : V_MPEG4/ISO/AVC
Duration                                 : 24 min 30 s
Bit rate                                 : 3 282 kb/s
Width                                    : 1 920 pixels
Height                                   : 1 080 pixels
Display aspect ratio                     : 16:9
Frame rate mode                          : Constant
Frame rate                               : 23.976 (24000/1001) FPS
Color space                              : YUV
Chroma subsampling                       : 4:2:0
Bit depth                                : 8 bits
Scan type                                : Progressive
Bits/(Pixel*Frame)                       : 0.066
Stream size                              : 575 MiB (91%)
Default                                  : Yes
Forced                                   : No
Color range                              : Limited
Color primaries                          : BT.709
Transfer characteristics                 : BT.709
Matrix coefficients                      : BT.709

Audio
ID                                       : 2
Format                                   : E-AC-3
Format/Info                              : Enhanced AC-3
Commercial name                          : Dolby Digital Plus
Codec ID                                 : A_EAC3
Duration                                 : 24 min 31 s
Bit rate mode                            : Constant
Bit rate                                 : 224 kb/s
Channel(s)                               : 2 channels
Channel layout                           : L R
Sampling rate                            : 48.0 kHz
Frame rate                               : 31.250 FPS (1536 SPF)
Compression mode                         : Lossy
Stream size                              : 39.3 MiB (6%)
Language                                 : Japanese
Service kind                             : Complete Main
Default                                  : Yes
Forced                                   : No

Text
ID                                       : 3
Format                                   : ASS
Codec ID                                 : S_TEXT/ASS
Codec ID/Info                            : Advanced Sub Station Alpha
Duration                                 : 24 min 26 s
Bit rate                                 : 20.3 kb/s
Frame rate                               : 0.713 FPS
Count of elements                        : 1046
Compression mode                         : Lossless
Stream size                              : 3.56 MiB (1%)
Language                                 : English
Default                                  : Yes
Forced                                   : No

Menu
00:00:00.000                             : Part A
00:01:34.428                             : Opening
00:03:04.518                             : Part B
00:10:53.570                             : Part C
00:21:45.596                             : Ending
00:23:15.561                             : Preview
00:23:45.507                             : Terapagos's Sparkly Exploration Diary
beta
Anime DDL+NZB mirror
Current Time: 22/04/2024 10:00



About/FAQs

Discord