File Size622.1 MB (652,286,042 bytes)
DownloadClickNUpload | DownloadGG | GoFile | KrakenFiles | MdiaLoad
MultiUp: Part1
  • BdUpload
  • DownAce
  • Fichier
  • FileCloud
  • Filerio
  • FilesCdn
  • IndiShare
  • Kbagi
  • Turbobit
  • UpToBox
  • Uppit
, Part2
  • BdUpload
  • DownAce
  • Fichier
  • FileCloud
  • Filerio
  • FilesCdn
  • IndiShare
  • Kbagi
  • Turbobit
  • UpToBox
  • Uppit
HashesCRC32: 12FA2BC9, MD5: 7FD5E8B9FF0CEE70A540A0649934BDD1, SHA1: 908B22B11B9A03110570A2F8C8C7798CEA6C9F29, SHA256: C5A92FDA403CA9FCDD11F0C236212289D2BE98D729CB929A31EF44FE890345FF, ED2K: 12309AAA541936D3E1CF94CCADB3E431
Screenshots
screenshotscreenshotscreenshotscreenshotscreenshot
SubtitlesAll Attachments | eng [ASS]
Additional Info
General
Unique ID                                : 88260471214374288511956626010259508266 (0x426659337A7CFD8763A241362F06CC2A)
Complete name                            : [somedroplet] Pokémon Horizons - 022 v2 [12FA2BC9].mkv
Format                                   : Matroska
Format version                           : Version 4
File size                                : 622 MiB
Duration                                 : 24 min 31 s
Overall bit rate                         : 3 547 kb/s
Encoded date                             : UTC 2023-09-22 00:23:33
Writing application                      : mkvmerge v52.0.0 ('Secret For The Mad') 64-bit
Writing library                          : libebml v1.4.1 + libmatroska v1.6.2
Attachments                              : Open Sans Italic.ttf / Open Sans.ttf / Open Sans Bold Italic.ttf / Open Sans Bold.ttf / candarab.ttf / candaraz.ttf / ERASBD.TTF / FOT-NewRodinPro-UB.otf / FOT-RowdyStd-EB.otf / FOT-SlumpStd-DB.otf / FOT-UDKakugo_LargePr6N-R.otf / HummingMod_nojapanese.otf / itc-bolt-bold.otf / PmLogo2023.ttf / RodinNTLGPro-B-Str.otf / UDKakugo_LargePr6N-B-Str.otf / Waukegan LDO Bold Oblique.ttf / Waukegan LDO Bold.ttf

Video
ID                                       : 1
Format                                   : AVC
Format/Info                              : Advanced Video Codec
Format profile                           : High@L4
Format settings                          : CABAC / 4 Ref Frames
Format settings, CABAC                   : Yes
Format settings, Reference frames        : 4 frames
Codec ID                                 : V_MPEG4/ISO/AVC
Duration                                 : 24 min 30 s
Bit rate                                 : 3 178 kb/s
Width                                    : 1 920 pixels
Height                                   : 1 080 pixels
Display aspect ratio                     : 16:9
Frame rate mode                          : Constant
Frame rate                               : 23.976 (24000/1001) FPS
Color space                              : YUV
Chroma subsampling                       : 4:2:0
Bit depth                                : 8 bits
Scan type                                : Progressive
Bits/(Pixel*Frame)                       : 0.064
Stream size                              : 557 MiB (90%)
Default                                  : Yes
Forced                                   : No
Color range                              : Limited
Color primaries                          : BT.709
Transfer characteristics                 : BT.709
Matrix coefficients                      : BT.709

Audio
ID                                       : 2
Format                                   : E-AC-3
Format/Info                              : Enhanced AC-3
Commercial name                          : Dolby Digital Plus
Codec ID                                 : A_EAC3
Duration                                 : 24 min 31 s
Bit rate mode                            : Constant
Bit rate                                 : 224 kb/s
Channel(s)                               : 2 channels
Channel layout                           : L R
Sampling rate                            : 48.0 kHz
Frame rate                               : 31.250 FPS (1536 SPF)
Compression mode                         : Lossy
Stream size                              : 39.3 MiB (6%)
Language                                 : Japanese
Service kind                             : Complete Main
Default                                  : Yes
Forced                                   : No

Text
ID                                       : 3
Format                                   : ASS
Codec ID                                 : S_TEXT/ASS
Codec ID/Info                            : Advanced Sub Station Alpha
Duration                                 : 24 min 28 s
Bit rate                                 : 51.3 kb/s
Count of elements                        : 1345
Compression mode                         : Lossless
Stream size                              : 8.98 MiB (1%)
Language                                 : English
Default                                  : Yes
Forced                                   : No

Menu
00:00:00.000                             : :Part A
00:01:10.612                             : :Opening
00:02:40.702                             : :Part B
00:13:11.499                             : :Part C
00:21:45.513                             : :Ending
00:23:15.456                             : :Professor Friede's Pokémon Seminar A
00:23:37.478                             : :Professor Friede's Pokémon Seminar B
00:24:00.501                             : :Preview
beta
Anime DDL+NZB mirror
Current Time: 23/02/2024 00:03



About/FAQs

Discord