File Size368.0 MB (385,922,135 bytes)
DownloadAnonFiles | ClickNUpload | DropAPK | Free | MultiUp
  • BdUpload
  • DownAce
  • Fichier
  • FileCloud
  • Filerio
  • FilesCdn
  • IndiShare
  • Kbagi
  • Turbobit
  • UpToBox
  • Uppit
| SolidFiles | ZippyShare
HashesCRC32: 8C3CC478, MD5: 2AADBA1CD90E9C3D15B544E96D15C7E6, SHA1: AC46CBABBDAF215ED84B2D14172FD5982F2C3EE0, SHA256: 6D08B59D306A2E8747974751A14DA0FF3B5A0A51B75CCBC51096256EDDCBDF44, ED2K: 317B994410687F6C979DA84F0407A2CE
Screenshots
screenshotscreenshotscreenshotscreenshotscreenshot
SubtitlesAll Attachments | Signs & Songs - ENG (ASS) [eng, ASS], Dialog - ENG (ASS) [eng, ASS]
Additional Info
General
Unique ID                                : 81830591087138694214048547543039410121 (0x3D8FFFA28E6BB6411E5C156486ECFFC9)
Complete name                            : Maria+Holic - S02E02.mkv
Format                                   : Matroska
Format version                           : Version 4
File size                                : 368 MiB
Duration                                 : 25 min 6 s
Overall bit rate                         : 2 049 kb/s
Movie name                               : Maria+Holic - S02E02
Encoded date                             : UTC 2020-11-21 08:47:55
Writing application                      : mkvmerge v47.0.0 ('Black Flag') 64-bit
Writing library                          : libebml v1.3.10 + libmatroska v1.5.2 / Lavf58.29.100
Attachments                              : bronic.ttf / bronici.ttf / CCZoinks Medium add to ep 2-5.ttf / Bienetresocial.ttf / BKANT.TTF / BKANT_0.TTF / Blokletters-Viltstift-FXD.ttf / Blokletters-Viltstift-FXD_0.ttf / bluehigl.ttf / bluehigl_0.ttf / Brady Bunch.ttf / Brady Bunch_0.ttf / Brianne_s_hand.ttf / Brianne_s_hand_0.ttf / Brianne_s_hand_1.ttf / CAC Moose.ttf / CAC Moose_0.ttf / calibri.ttf / calibri_0.ttf / CALIBRI_1.TTF / CREABBRG.ttf / CREABBRG_0.ttf / D3Streetism.TTF / D3Streetism_0.TTF / epilog.ttf / EraserRegular.ttf / fansubBlock.ttf / fansubBlock_0.ttf / framd.ttf / framd_0.ttf / GAU_root_N.TTF / GIL____.TTF / GIL_____.TTF / gomarice_rocks.ttf / Humana_Sans_ITC_TT_Bold.ttf / Humana_Sans_ITC_TT_BoldItalic.ttf / Humana_Sans_ITC_TT_Light.ttf / Humana_Sans_ITC_TT_LightItalic.ttf / icedeart.ttf / icedeart_0.ttf / JOSSCHRI.TTF / LiberationSans-Regular.ttf / LiberationSans-Regular_0.ttf / LiberationSans-Regular_1.ttf / LiberationSerif-Regular.ttf / LiberationSerif-Regular_0.ttf / LiberationSerif-Regular_1.ttf / LT.ttf / LT_3.ttf / LT_4.ttf / MECHAG.TTF / MECHAG_0.TTF / pf_ronda_seven.ttf / tahoma.ttf / tahoma_0.ttf / trebuc.ttf / trebuc_0.ttf / y2k.ttf / y2k_0.ttf / ALIEN5.TTF / ALIEN5_0.TTF / ARCENA.ttf / arial.ttf / arial_0.ttf / Arialtbg.ttf / Arista2.0.ttf / Arista2.0_0.ttf / ArnoPro-SmbdSubhead.otf / ArnoPro-SmbdSubhead_0.otf / ARNORG.TTF / ARNORG_0.TTF / AUBREY_pl.ttf / AUBREY_pl_0.ttf / badankadonk.ttf / badankadonk_0.ttf / BAKESBR.TTF / BAKESBR_0.TTF / banana_chips.TTF / banana_chips_0.TTF / barrer.ttf / Barrett    BoldItalic.ttf / Barrett  Bold.ttf / Barrett  Italic.ttf

Video
ID                                       : 1
Format                                   : HEVC
Format/Info                              : High Efficiency Video Coding
Format profile                           : Main 10@L4.1@High
Codec ID                                 : V_MPEGH/ISO/HEVC
Duration                                 : 25 min 6 s
Bit rate                                 : 1 646 kb/s
Width                                    : 1 920 pixels
Height                                   : 1 080 pixels
Display aspect ratio                     : 16:9
Frame rate mode                          : Constant
Frame rate                               : 23.976 (24000/1001) FPS
Color space                              : YUV
Chroma subsampling                       : 4:2:0
Bit depth                                : 10 bits
Bits/(Pixel*Frame)                       : 0.033
Stream size                              : 296 MiB (80%)
Writing library                          : x265 3.2.1+1-b5c86a64bbbe:[Windows][GCC 9.2.0][64 bit] 10bit
Encoding settings                        : cpuid=1111039 / frame-threads=2 / numa-pools=4 / wpp / no-pmode / no-pme / no-psnr / no-ssim / log-level=2 / input-csp=1 / input-res=1920x1080 / interlace=0 / total-frames=0 / level-idc=41 / high-tier=1 / uhd-bd=0 / ref=5 / no-allow-non-conformance / no-repeat-headers / annexb / no-aud / no-hrd / info / hash=0 / no-temporal-layers / open-gop / min-keyint=24 / keyint=240 / gop-lookahead=0 / bframes=8 / b-adapt=2 / b-pyramid / bframe-bias=0 / rc-lookahead=25 / lookahead-slices=4 / scenecut=40 / radl=0 / no-splice / no-intra-refresh / ctu=64 / min-cu-size=8 / rect / no-amp / max-tu-size=32 / tu-inter-depth=1 / tu-intra-depth=1 / limit-tu=0 / rdoq-level=2 / dynamic-rd=0.00 / no-ssim-rd / signhide / no-tskip / nr-intra=0 / nr-inter=0 / no-constrained-intra / strong-intra-smoothing / max-merge=3 / limit-refs=3 / limit-modes / me=3 / subme=3 / merange=57 / temporal-mvp / no-hme / weightp / no-weightb / no-analyze-src-pics / deblock=0:0 / sao / no-sao-non-deblock / rd=4 / selective-sao=4 / no-early-skip / rskip / no-fast-intra / no-tskip-fast / no-cu-lossless / no-b-intra / no-splitrd-skip / rdpenalty=0 / psy-rd=0.00 / psy-rdoq=1.00 / no-rd-refine / no-lossless / cbqpoffs=0 / crqpoffs=0 / rc=crf / crf=23.0 / qcomp=0.60 / qpstep=4 / stats-write=0 / stats-read=0 / vbv-maxrate=50000 / vbv-bufsize=50000 / vbv-init=0.9 / crf-max=0.0 / crf-min=0.0 / ipratio=1.40 / pbratio=1.30 / aq-mode=3 / aq-strength=0.80 / cutree / zone-count=0 / no-strict-cbr / qg-size=32 / no-rc-grain / qpmax=69 / qpmin=0 / no-const-vbv / sar=1 / overscan=0 / videoformat=5 / range=0 / colorprim=1 / transfer=1 / colormatrix=1 / chromaloc=0 / display-window=0 / cll=0,0 / min-luma=0 / max-luma=1023 / log2-max-poc-lsb=8 / vui-timing-info / vui-hrd-info / slices=1 / no-opt-qp-pps / no-opt-ref-list-length-pps / no-multi-pass-opt-rps / scenecut-bias=0.05 / no-opt-cu-delta-qp / no-aq-motion / no-hdr / no-hdr-opt / no-dhdr10-opt / no-idr-recovery-sei / analysis-reuse-level=5 / scale-factor=0 / refine-intra=0 / refine-inter=0 / refine-mv=1 / refine-ctu-distortion=0 / no-limit-sao / ctu-info=0 / no-lowpass-dct / refine-analysis-type=0 / copy-pic=1 / max-ausize-factor=1.0 / no-dynamic-refine / no-single-sei / no-hevc-aq / no-svt / no-field / qp-adaptation-range=1.00
Default                                  : Yes
Forced                                   : No
Color range                              : Limited
Color primaries                          : BT.709
Transfer characteristics                 : BT.709
Matrix coefficients                      : BT.709

Audio #1
ID                                       : 2
Format                                   : AC-3
Format/Info                              : Audio Coding 3
Commercial name                          : Dolby Digital
Codec ID                                 : A_AC3
Duration                                 : 25 min 6 s
Bit rate mode                            : Constant
Bit rate                                 : 224 kb/s
Channel(s)                               : 2 channels
Channel layout                           : L R
Sampling rate                            : 48.0 kHz
Frame rate                               : 31.250 FPS (1536 SPF)
Bit depth                                : 16 bits
Compression mode                         : Lossy
Delay relative to video                  : 24 ms
Stream size                              : 40.2 MiB (11%)
Title                                    : Stereo - ENG (AAC)
Language                                 : English
Service kind                             : Complete Main
Default                                  : Yes
Forced                                   : No

Audio #2
ID                                       : 3
Format                                   : AAC LC
Format/Info                              : Advanced Audio Codec Low Complexity
Codec ID                                 : A_AAC-2
Duration                                 : 25 min 6 s
Bit rate                                 : 117 kb/s
Channel(s)                               : 2 channels
Channel layout                           : L R
Sampling rate                            : 48.0 kHz
Frame rate                               : 46.875 FPS (1024 SPF)
Compression mode                         : Lossy
Delay relative to video                  : -43 ms
Stream size                              : 21.1 MiB (6%)
Title                                    : Stereo - JPN (AAC)
Language                                 : Japanese
Default                                  : No
Forced                                   : No

Text #1
ID                                       : 4
Format                                   : ASS
Codec ID                                 : S_TEXT/ASS
Codec ID/Info                            : Advanced Sub Station Alpha
Duration                                 : 24 min 55 s
Bit rate                                 : 700 b/s
Count of elements                        : 1424
Compression mode                         : Lossless
Stream size                              : 128 KiB (0%)
Title                                    : Signs & Songs - ENG (ASS)
Language                                 : English
Default                                  : Yes
Forced                                   : No

Text #2
ID                                       : 5
Format                                   : ASS
Codec ID                                 : S_TEXT/ASS
Codec ID/Info                            : Advanced Sub Station Alpha
Duration                                 : 25 min 1 s
Bit rate                                 : 825 b/s
Count of elements                        : 1767
Compression mode                         : Lossless
Stream size                              : 151 KiB (0%)
Title                                    : Dialog - ENG (ASS)
Language                                 : English
Default                                  : No
Forced                                   : No

Menu
00:00:00.000                             : :Intro
00:02:19.056                             : :OP
00:03:49.062                             : :Part A
00:13:32.061                             : :Part B
00:17:44.063                             : :Part C
00:21:54.063                             : :ED
00:23:24.111                             : :Outro
00:24:50.072                             : :Bonus

Other Files in this Torrent
Season 2/Maria+Holic - S02E02.mkv
beta
Anime DDL+NZB mirror
Current Time: 08/08/2022 09:45



About/FAQs

Discord