File Size3.904 GB (4,191,701,179 bytes)
DownloadClickNUpload: Part1, Part2
DailyUploads: Part1, Part2, Part3, Part4
DownloadGG: Part1, Part2, Part3, Part4
GoFile: Part1, Part2
KrakenFiles: Part1, Part2, Part3, Part4
MdiaLoad: Part1, Part2
MultiUp: Part1
  • BdUpload
  • DownAce
  • Fichier
  • FileCloud
  • Filerio
  • FilesCdn
  • IndiShare
  • Kbagi
  • Turbobit
  • UpToBox
  • Uppit
, Part2
  • BdUpload
  • DownAce
  • Fichier
  • FileCloud
  • Filerio
  • FilesCdn
  • IndiShare
  • Kbagi
  • Turbobit
  • UpToBox
  • Uppit
, Part3
  • BdUpload
  • DownAce
  • Fichier
  • FileCloud
  • Filerio
  • FilesCdn
  • IndiShare
  • Kbagi
  • Turbobit
  • UpToBox
  • Uppit
, Part4
  • BdUpload
  • DownAce
  • Fichier
  • FileCloud
  • Filerio
  • FilesCdn
  • IndiShare
  • Kbagi
  • Turbobit
  • UpToBox
  • Uppit
, Part5
  • BdUpload
  • DownAce
  • Fichier
  • FileCloud
  • Filerio
  • FilesCdn
  • IndiShare
  • Kbagi
  • Turbobit
  • UpToBox
  • Uppit
, Part6
  • BdUpload
  • DownAce
  • Fichier
  • FileCloud
  • Filerio
  • FilesCdn
  • IndiShare
  • Kbagi
  • Turbobit
  • UpToBox
  • Uppit
, Part7
  • BdUpload
  • DownAce
  • Fichier
  • FileCloud
  • Filerio
  • FilesCdn
  • IndiShare
  • Kbagi
  • Turbobit
  • UpToBox
  • Uppit
, Part8
  • BdUpload
  • DownAce
  • Fichier
  • FileCloud
  • Filerio
  • FilesCdn
  • IndiShare
  • Kbagi
  • Turbobit
  • UpToBox
  • Uppit

Uppit: Part1, Part2, Part3, Part4
HashesCRC32: 50825439, MD5: 2EB0489C6FF8956FFA54F12B16D4457F, SHA1: 5438D2EFAE6F4041A743579A60A56A8E1BC65DEC, SHA256: EEF06AB4A2869BC8E29C04FCD0381BF64BC14CC9FDA15038936F068C6E1EB6D3, ED2K: 29CBA737A1019DA8B97C934D659702EC
Screenshots
screenshotscreenshotscreenshotscreenshotscreenshot
SubtitlesAll Attachments | Full Subtitles [GJM] [eng, ASS], Signs/Songs [GJM] [eng, ASS]
Additional Info
General
Unique ID                                : 273747979974423145451345627133498547371 (0xCDF1F1748F8D4A692DE8D70F69B6DCAB)
Complete name                            : [sam] One Punch Man S2 - 02 [BD 1080p FLAC] [50825439].mkv
Format                                   : Matroska
Format version                           : Version 4
File size                                : 3.90 GiB
Duration                                 : 23 min 50 s
Overall bit rate mode                    : Variable
Overall bit rate                         : 23.4 Mb/s
Frame rate                               : 23.976 FPS
Movie name                               : One Punch Man S2 - 02
Encoded date                             : 2024-01-02 13:45:07 UTC
Writing application                      : mkvmerge v78.0 ('Running') 64-bit
Writing library                          : libebml v1.4.4 + libmatroska v1.7.1
Attachments                              : albatross.TTF / arial.ttf / aver-Bold.TTF / cityburn.TTF / ComicBook.TTF / CrackedJohnnie.TTF / franchise-Bold.TTF / JaneRoe-Bold.TTF / MasterBreaker.TTF / quicksand.TTF / XangdaShiny.TTF / AwesomeSauceDemo.OTF / GandhiSans-Bold.OTF / GandhiSans-BoldItalic.OTF / malvie.OTF / PeunaBrush.OTF

Video
ID                                       : 1
Format                                   : HEVC
Format/Info                              : High Efficiency Video Coding
Format profile                           : Main 10@L4@Main
Codec ID                                 : V_MPEGH/ISO/HEVC
Duration                                 : 23 min 50 s
Bit rate                                 : 21.9 Mb/s
Width                                    : 1 920 pixels
Height                                   : 1 080 pixels
Display aspect ratio                     : 16:9
Frame rate mode                          : Constant
Frame rate                               : 23.976 (24000/1001) FPS
Color space                              : YUV
Chroma subsampling                       : 4:2:0
Bit depth                                : 10 bits
Bits/(Pixel*Frame)                       : 0.441
Stream size                              : 3.65 GiB (94%)
Title                                    : BDrip by sam
Writing library                          : x265 3.5+131-c5c0aa6fd:[DJATOM's Mod][Windows][GCC 13.1.0][64 bit] 10bit
Encoding settings                        : cpuid=1111039 / frame-threads=5 / numa-pools=32 / wpp / no-pmode / no-pme / no-psnr / no-ssim / log-level=2 / csv / csv-log-level=0 / input-csp=1 / input-res=1920x1080 / interlace=0 / total-frames=34286 / level-idc=0 / high-tier=1 / uhd-bd=0 / ref=5 / no-allow-non-conformance / no-repeat-headers / annexb / no-aud / no-eob / no-eos / no-hrd / info / hash=0 / temporal-layers=0 / no-open-gop / min-keyint=23 / keyint=240 / gop-lookahead=0 / bframes=12 / b-adapt=2 / b-pyramid / bframe-bias=0 / rc-lookahead=60 / lookahead-slices=0 / scenecut=40 / no-hist-scenecut / radl=0 / no-splice / no-intra-refresh / ctu=64 / min-cu-size=8 / no-rect / no-amp / max-tu-size=32 / tu-inter-depth=2 / tu-intra-depth=2 / limit-tu=0 / rdoq-level=2 / dynamic-rd=0.00 / no-ssim-rd / signhide / no-tskip / nr-intra=0 / nr-inter=0 / no-constrained-intra / no-strong-intra-smoothing / max-merge=5 / limit-refs=1 / no-limit-modes / me=3 / subme=5 / merange=57 / temporal-mvp / no-frame-dup / no-hme / weightp / weightb / no-analyze-src-pics / deblock=-2:-2 / no-sao / no-sao-non-deblock / rd=3 / selective-sao=0 / no-early-skip / no-rskip / no-fast-intra / no-tskip-fast / no-cu-lossless / b-intra / no-splitrd-skip / rdpenalty=0 / psy-rd=2.00 / psy-rdoq=2.20 / no-rd-refine / no-lossless / cbqpoffs=-2 / crqpoffs=-2 / rc=crf / crf=12.4 / qcomp=0.70 / qpstep=4 / stats-write=0 / stats-read=0 / ipratio=1.40 / pbratio=1.30 / aq-mode=3 / aq-strength=0.65 / aq-bias-strength=1.00 / no-cutree / zone-count=1 / zones: / start-frame=5275 / end-frame=7431 / bitrate-factor=1.300000 / no-strict-cbr / qg-size=32 / no-rc-grain / qpmax=69 / qpmin=0 / no-const-vbv / sar=1 / overscan=0 / videoformat=5 / range=0 / colorprim=1 / transfer=1 / colormatrix=1 / chromaloc=0 / display-window=0 / cll=0,0 / min-luma=64 / max-luma=940 / log2-max-poc-lsb=8 / vui-timing-info / vui-hrd-info / slices=1 / no-opt-qp-pps / no-opt-ref-list-length-pps / no-multi-pass-opt-rps / scenecut-bias=0.05 / no-opt-cu-delta-qp / no-aq-motion / no-hdr10 / no-hdr10-opt / no-dhdr10-opt / no-idr-recovery-sei / analysis-reuse-level=0 / analysis-save-reuse-level=0 / analysis-load-reuse-level=0 / scale-factor=0 / refine-intra=0 / refine-inter=0 / refine-mv=1 / refine-ctu-distortion=0 / no-limit-sao / ctu-info=0 / no-lowpass-dct / refine-analysis-type=0 / copy-pic=1 / max-ausize-factor=1.0 / no-dynamic-refine / no-single-sei / no-hevc-aq / no-svt / no-field / qp-adaptation-range=1.00 / scenecut-aware-qp=0conformance-window-offsets / right=0 / bottom=0 / decoder-max-rate=0 / no-vbv-live-multi-pass / no-mcstf / no-sbrc
Language                                 : Japanese
Default                                  : Yes
Forced                                   : No
Color range                              : Limited
Color primaries                          : BT.709
Transfer characteristics                 : BT.709
Matrix coefficients                      : BT.709

Audio #1
ID                                       : 2
Format                                   : FLAC
Format/Info                              : Free Lossless Audio Codec
Codec ID                                 : A_FLAC
Duration                                 : 23 min 50 s
Bit rate mode                            : Variable
Bit rate                                 : 754 kb/s
Channel(s)                               : 2 channels
Channel layout                           : L R
Sampling rate                            : 48.0 kHz
Frame rate                               : 11.719 FPS (4096 SPF)
Bit depth                                : 16 bits
Compression mode                         : Lossless
Stream size                              : 129 MiB (3%)
Title                                    : FLAC 2.0
Writing library                          : libFLAC 1.4.3 (2023-06-23)
Language                                 : Japanese
Default                                  : Yes
Forced                                   : No
MD5 of the unencoded content             : 23CBB2663FD1DB0A6CE5165BE088EA29

Audio #2
ID                                       : 3
Format                                   : FLAC
Format/Info                              : Free Lossless Audio Codec
Codec ID                                 : A_FLAC
Duration                                 : 23 min 50 s
Bit rate mode                            : Variable
Bit rate                                 : 721 kb/s
Channel(s)                               : 2 channels
Channel layout                           : L R
Sampling rate                            : 48.0 kHz
Frame rate                               : 11.719 FPS (4096 SPF)
Bit depth                                : 16 bits
Compression mode                         : Lossless
Stream size                              : 123 MiB (3%)
Title                                    : FLAC 2.0
Writing library                          : libFLAC 1.4.3 (2023-06-23)
Language                                 : English
Default                                  : No
Forced                                   : No
MD5 of the unencoded content             : 6AC78F9E5FC4806BE46CEE15C154AB01

Text #1
ID                                       : 4
Format                                   : ASS
Codec ID                                 : S_TEXT/ASS
Codec ID/Info                            : Advanced Sub Station Alpha
Duration                                 : 23 min 49 s
Bit rate                                 : 2 140 b/s
Frame rate                               : 1.808 FPS
Count of elements                        : 2586
Compression mode                         : Lossless
Stream size                              : 374 KiB (0%)
Title                                    : Full Subtitles [GJM]
Language                                 : English
Default                                  : Yes
Forced                                   : No

Text #2
ID                                       : 5
Format                                   : ASS
Codec ID                                 : S_TEXT/ASS
Codec ID/Info                            : Advanced Sub Station Alpha
Duration                                 : 23 min 49 s
Bit rate                                 : 1 987 b/s
Frame rate                               : 1.505 FPS
Count of elements                        : 2152
Compression mode                         : Lossless
Stream size                              : 347 KiB (0%)
Title                                    : Signs/Songs [GJM]
Language                                 : English
Default                                  : No
Forced                                   : Yes

Menu
00:00:00.000                             : en:Prologue
00:03:40.011                             : en:Opening
00:05:09.976                             : en:Part A
00:16:58.976                             : en:Part B
00:20:22.972                             : en:Ending
00:21:53.020                             : en:Epilogue
00:23:45.007                             : en:Preview

Other Files in this Torrent
[sam] One Punch Man S2 - 02 [BD 1080p FLAC] [50825439].mkv
beta
Anime DDL+NZB mirror
Current Time: 19/05/2024 18:25



About/FAQs

Discord