File Size470.1 MB (492,965,081 bytes)
DownloadClickNUpload | DownloadGG | KrakenFiles | MultiUp
  • BdUpload
  • DownAce
  • Fichier
  • FileCloud
  • Filerio
  • FilesCdn
  • IndiShare
  • Kbagi
  • Turbobit
  • UpToBox
  • Uppit
| ZippyShare
HashesCRC32: 6FD0FD85, MD5: 14971203D2E465F4749AED1268872840, SHA1: 29D0F3E829220A92968C6319C4E8EF2EF4E39204, SHA256: A078984F48CA2A1196C98EEAE48D43AB09AAFC130508B83B1BE3A502EFDC27DC, ED2K: 33294391A3A07194D5E24C277ACB519E
Screenshots
screenshotscreenshotscreenshotscreenshotscreenshot
SubtitlesAll Attachments | Signs & Songs@EMBER [eng, ASS], Dialogue@EMBER [eng, ASS]
Additional Info
General
Unique ID                                : 242934195185442867663244406011151333592 (0xB6C36C91F8536AF9D91F39B6C18138D8)
Complete name                            : S03E10-First Shrine Visit Snowman New Year's Advice [6FD0FD85].mkv
Format                                   : Matroska
Format version                           : Version 4
File size                                : 470 MiB
Duration                                 : 23 min 39 s
Overall bit rate                         : 2 779 kb/s
Movie name                               : Teasing.Master.Takagi-san.S03E10.1080p.BDRip.10.bits.DD+.x265-EMBER
Encoded date                             : UTC 2022-07-09 12:54:06
Writing application                      : mkvmerge v65.0.0 ('Too Much') 64-bit
Writing library                          : libebml v1.4.2 + libmatroska v1.6.4
Cover                                    : Yes
Attachments                              : cover.jpg / GandhiSans-Bold.otf / Mercurius-Medium.otf / sawarabi-mincho-medium.ttf / A-OTF-MoariaStd-Regular.otf / arialbd.ttf / FOT-SeuratProN-DB.otf

Video
ID                                       : 1
Format                                   : HEVC
Format/Info                              : High Efficiency Video Coding
Format profile                           : Main 10@L4.1@High
Codec ID                                 : V_MPEGH/ISO/HEVC
Duration                                 : 23 min 39 s
Bit rate                                 : 2 302 kb/s
Width                                    : 1 920 pixels
Height                                   : 1 080 pixels
Display aspect ratio                     : 16:9
Frame rate mode                          : Constant
Frame rate                               : 23.976 (24000/1001) FPS
Color space                              : YUV
Chroma subsampling                       : 4:2:0
Bit depth                                : 10 bits
Bits/(Pixel*Frame)                       : 0.046
Stream size                              : 389 MiB (83%)
Title                                    : Presented By EMBER
Writing library                          : x265 2.4+14-bc0e9bd7c08f5ddc:[Windows][GCC 6.3.0][64 bit] 10bit: KG7x [x265.ru]
Encoding settings                        : cpuid=1173503 / frame-threads=3 / numa-pools=8 / wpp / no-pmode / no-pme / no-psnr / no-ssim / log-level=2 / input-csp=1 / input-res=1920x1080 / interlace=0 / total-frames=0 / level-idc=41 / high-tier=1 / uhd-bd=0 / ref=4 / no-allow-non-conformance / repeat-headers / annexb / aud / no-hrd / info / hash=0 / no-temporal-layers / no-open-gop / min-keyint=23 / keyint=250 / bframes=8 / b-adapt=2 / b-pyramid / bframe-bias=0 / rc-lookahead=60 / lookahead-slices=4 / scenecut=40 / no-intra-refresh / ctu=64 / min-cu-size=8 / no-rect / no-amp / max-tu-size=32 / tu-inter-depth=1 / tu-intra-depth=1 / limit-tu=0 / rdoq-level=2 / dynamic-rd=0.00 / no-ssim-rd / signhide / no-tskip / nr-intra=0 / nr-inter=0 / no-constrained-intra / no-strong-intra-smoothing / max-merge=5 / limit-refs=3 / limit-modes / me=3 / subme=5 / merange=57 / temporal-mvp / weightp / no-weightb / no-analyze-src-pics / deblock=1:-1 / no-sao / no-sao-non-deblock / rd=4 / no-early-skip / rskip / no-fast-intra / no-tskip-fast / no-cu-lossless / no-b-intra / rdpenalty=0 / psy-rd=1.50 / psy-rdoq=2.00 / no-rd-refine / analysis-mode=0 / no-lossless / cbqpoffs=0 / crqpoffs=0 / rc=crf / crf=19.4 / qcomp=0.60 / qpstep=4 / stats-write=0 / stats-read=0 / vbv-maxrate=50000 / vbv-bufsize=50000 / vbv-init=0.9 / crf-max=0.0 / crf-min=0.0 / ipratio=1.40 / pbratio=1.30 / aq-mode=3 / aq-strength=0.90 / no-cutree / zone-count=0 / no-strict-cbr / qg-size=32 / no-rc-grain / qpmax=69 / qpmin=0 / sar=0 / overscan=0 / videoformat=5 / range=0 / colorprim=1 / transfer=1 / colormatrix=1 / chromaloc=0 / display-window=0 / max-cll=0,0 / min-luma=0 / max-luma=1023 / log2-max-poc-lsb=8 / vui-timing-info / vui-hrd-info / slices=1 / opt-qp-pps / opt-ref-list-length-pps / no-multi-pass-opt-rps / scenecut-bias=0.05 / no-opt-cu-delta-qp / no-aq-motion / no-hdr / no-hdr-opt / no-dhdr10-opt / refine-level=5 / no-limit-sao / ctu-info=0
Default                                  : Yes
Forced                                   : No
Color range                              : Limited
Color primaries                          : BT.709
Transfer characteristics                 : BT.709
Matrix coefficients                      : BT.709

Audio #1
ID                                       : 2
Format                                   : AAC LC
Format/Info                              : Advanced Audio Codec Low Complexity
Codec ID                                 : A_AAC-2
Duration                                 : 23 min 37 s
Bit rate                                 : 159 kb/s
Channel(s)                               : 2 channels
Channel layout                           : L R
Sampling rate                            : 48.0 kHz
Frame rate                               : 46.875 FPS (1024 SPF)
Compression mode                         : Lossy
Stream size                              : 26.9 MiB (6%)
Title                                    : Yameii@HIDIVE
Language                                 : English
Default                                  : Yes
Forced                                   : No

Audio #2
ID                                       : 3
Format                                   : E-AC-3
Format/Info                              : Enhanced AC-3
Commercial name                          : Dolby Digital Plus
Codec ID                                 : A_EAC3
Duration                                 : 23 min 38 s
Bit rate mode                            : Constant
Bit rate                                 : 224 kb/s
Channel(s)                               : 2 channels
Channel layout                           : L R
Sampling rate                            : 48.0 kHz
Frame rate                               : 31.250 FPS (1536 SPF)
Compression mode                         : Lossy
Stream size                              : 37.9 MiB (8%)
Title                                    : AMZN
Language                                 : Japanese
Service kind                             : Complete Main
Default                                  : No
Forced                                   : No

Text #1
ID                                       : 4
Format                                   : ASS
Codec ID                                 : S_TEXT/ASS
Codec ID/Info                            : Advanced Sub Station Alpha
Duration                                 : 15 min 55 s
Bit rate                                 : 11.4 kb/s
Count of elements                        : 4894
Compression mode                         : Lossless
Stream size                              : 1.30 MiB (0%)
Title                                    : Signs & Songs@EMBER
Language                                 : English
Default                                  : Yes
Forced                                   : No

Text #2
ID                                       : 5
Format                                   : ASS
Codec ID                                 : S_TEXT/ASS
Codec ID/Info                            : Advanced Sub Station Alpha
Duration                                 : 22 min 0 s
Bit rate                                 : 8 369 b/s
Count of elements                        : 5231
Compression mode                         : Lossless
Stream size                              : 1.32 MiB (0%)
Title                                    : Dialogue@EMBER
Language                                 : English
Default                                  : No
Forced                                   : No

Menu
00:00:00.000                             : en:OP
00:01:30.004                             : en:Part A
00:07:27.987                             : en:Part B
00:13:42.027                             : en:Part C
00:15:37.976                             : en:Part D
00:22:07.824                             : en:ED

Other Files in this Torrent
S03E10-First Shrine Visit Snowman New Year's Advice [6FD0FD85].mkv
beta
Anime DDL+NZB mirror
Current Time: 24/02/2024 06:22



About/FAQs

Discord