[RH] Violet Evergarden - NCOP (BDRip Hi10 1080p FLAC) [628E1358].mkv


File Size105.5 MB (110,631,026 bytes)
DownloadClickNUpload | DiskoKosmiko | Go4Up | Jheberg | MultiUp | OpenLoad | Sendspace | SolidFiles | ZippyShare
HashesCRC32: 628E1358, MD5: 03BE878466AC071811BD5E93B551A4DF, SHA1: 77E42AFFF3C36C34F7257CB2A04A0308BC4526BC, SHA256: 9991AB800A45513B387AAA3ACB3F2AEBF4439F5C476BE9629DDE63DF79C0B659, ED2K: 1406492214AA087006C8ED3345BEA086
Screenshots
screenshotscreenshot
SubtitlesAll Attachments | English [eng, ASS]
Additional Info
General
Unique ID                                : 41353946063119194490521370401172542238 (0x1F1C7AF53687CD74F172AADC9FF2D31E)
Complete name                            : [RH] Violet Evergarden - NCOP (BDRip Hi10 1080p FLAC) [628E1358].mkv
Format                                   : Matroska
Format version                           : Version 4 / Version 2
File size                                : 106 MiB
Duration                                 : 1 min 30 s
Overall bit rate mode                    : Variable
Overall bit rate                         : 9 790 kb/s
Movie name                               : [RH] Violet Evergarden - NCOP [BDRip] [Hi10] [1080p]
Encoded date                             : UTC 2018-04-17 02:22:08
Writing application                      : mkvmerge v22.0.0 ('At The End Of The World') 64-bit
Writing library                          : libebml v1.3.5 + libmatroska v1.4.8
Attachments                              : IwaOMinPro-Bd-Fate.ttf

Video
ID                                       : 1
Format                                   : AVC
Format/Info                              : Advanced Video Codec
Format profile                           : High 10@L5.1
Format settings, CABAC                   : Yes
Format settings, ReFrames                : 16 frames
Codec ID                                 : V_MPEG4/ISO/AVC
Duration                                 : 1 min 30 s
Bit rate                                 : 8 147 kb/s
Width                                    : 1 920 pixels
Height                                   : 1 080 pixels
Display aspect ratio                     : 16:9
Frame rate mode                          : Constant
Frame rate                               : 23.976 (24000/1001) FPS
Color space                              : YUV
Chroma subsampling                       : 4:2:0
Bit depth                                : 10 bits
Scan type                                : Progressive
Bits/(Pixel*Frame)                       : 0.164
Stream size                              : 87.7 MiB (83%)
Title                                    : Hi10 1080p h.264
Writing library                          : x264 core 155 r2901 7d0ff22
Encoding settings                        : cabac=1 / ref=16 / deblock=1:-2:-2 / analyse=0x3:0x113 / me=umh / subme=10 / psy=1 / psy_rd=0.80:0.00 / mixed_ref=1 / me_range=32 / chroma_me=1 / trellis=2 / 8x8dct=1 / cqm=0 / deadzone=21,11 / fast_pskip=0 / chroma_qp_offset=-2 / threads=9 / lookahead_threads=2 / sliced_threads=0 / nr=0 / decimate=0 / interlaced=0 / bluray_compat=0 / constrained_intra=0 / bframes=16 / b_pyramid=2 / b_adapt=2 / b_bias=0 / direct=3 / weightb=1 / open_gop=0 / weightp=2 / keyint=240 / keyint_min=24 / scenecut=40 / intra_refresh=0 / rc_lookahead=48 / rc=crf / mbtree=1 / crf=14.0 / qcomp=0.70 / qpmin=0 / qpmax=81 / qpstep=4 / ip_ratio=1.40 / aq=3:0.80
Language                                 : Japanese
Default                                  : Yes
Forced                                   : No
Color range                              : Limited
Matrix coefficients                      : BT.709

Audio
ID                                       : 2
Format                                   : FLAC
Format/Info                              : Free Lossless Audio Codec
Codec ID                                 : A_FLAC
Duration                                 : 1 min 30 s
Bit rate mode                            : Variable
Bit rate                                 : 1 583 kb/s
Channel(s)                               : 2 channels
Channel positions                        : Front: L R
Sampling rate                            : 48.0 kHz
Frame rate                               : 11.726 FPS (4093 spf)
Bit depth                                : 24 bits
Stream size                              : 17.1 MiB (16%)
Title                                    : 2.0 FLAC
Writing library                          : libFLAC 1.3.1 (UTC 2014-11-25)
Language                                 : Japanese
Default                                  : Yes
Forced                                   : No

Text
ID                                       : 3
Format                                   : ASS
Codec ID                                 : S_TEXT/ASS
Codec ID/Info                            : Advanced Sub Station Alpha
Duration                                 : 1 min 25 s
Bit rate                                 : 487 b/s
Count of elements                        : 60
Compression mode                         : Lossless
Stream size                              : 5.09 KiB (0%)
Title                                    : English
Language                                 : English
Default                                  : Yes
Forced                                   : No

Other Files in this Torrent
[RH] Violet Evergarden - NCOP (BDRip Hi10 1080p FLAC) [628E1358].mkv
beta
Anime DDL+NZB mirror
Current Time: 25/05/2020 01:29



About/FAQs