[RH] Violet Evergarden - NCED (BDRip Hi10 1080p FLAC) [05A3A2F2].mkv


File Size183.6 MB (192,483,732 bytes)
DownloadClickNUpload | DiskoKosmiko | Go4Up | Jheberg | MultiUp | OpenLoad | Sendspace | SolidFiles | ZippyShare
HashesCRC32: 05A3A2F2, MD5: 39C167BAAD03E8AFECB0356C898080EA, SHA1: C78D5FDBD0CD0FCCDF3F8FFC96AB3465DB951B7C, SHA256: 6923E12DD734546E88F04BC77B4AC4DA901510B0D33585A51FEB4B5A4634CAD6, ED2K: 09BA1EBFE86BA2765127F6C419EC3EEC
Screenshots
screenshotscreenshot
SubtitlesAll Attachments | English [eng, ASS]
Additional Info
General
Unique ID                                : 304626086413333550939848526761517190712 (0xE52CD9A482E4C9B3DF94F02D87310E38)
Complete name                            : [RH] Violet Evergarden - NCED (BDRip Hi10 1080p FLAC) [05A3A2F2].mkv
Format                                   : Matroska
Format version                           : Version 4 / Version 2
File size                                : 184 MiB
Duration                                 : 1 min 30 s
Overall bit rate mode                    : Variable
Overall bit rate                         : 17.1 Mb/s
Movie name                               : [RH] Violet Evergarden - NCED [BDRip] [Hi10] [1080p]
Encoded date                             : UTC 2018-04-17 01:41:44
Writing application                      : mkvmerge v22.0.0 ('At The End Of The World') 64-bit
Writing library                          : libebml v1.3.5 + libmatroska v1.4.8
Attachments                              : justs.ttf

Video
ID                                       : 1
Format                                   : AVC
Format/Info                              : Advanced Video Codec
Format profile                           : High 10@L5.1
Format settings, CABAC                   : Yes
Format settings, ReFrames                : 16 frames
Codec ID                                 : V_MPEG4/ISO/AVC
Duration                                 : 1 min 30 s
Bit rate                                 : 15.6 Mb/s
Width                                    : 1 920 pixels
Height                                   : 1 080 pixels
Display aspect ratio                     : 16:9
Frame rate mode                          : Constant
Frame rate                               : 23.976 (24000/1001) FPS
Color space                              : YUV
Chroma subsampling                       : 4:2:0
Bit depth                                : 10 bits
Scan type                                : Progressive
Bits/(Pixel*Frame)                       : 0.314
Stream size                              : 167 MiB (91%)
Title                                    : Hi10 1080p h.264
Writing library                          : x264 core 155 r2901 7d0ff22
Encoding settings                        : cabac=1 / ref=16 / deblock=1:-2:-2 / analyse=0x3:0x113 / me=umh / subme=10 / psy=1 / psy_rd=0.80:0.00 / mixed_ref=1 / me_range=32 / chroma_me=1 / trellis=2 / 8x8dct=1 / cqm=0 / deadzone=21,11 / fast_pskip=0 / chroma_qp_offset=-2 / threads=9 / lookahead_threads=2 / sliced_threads=0 / nr=0 / decimate=0 / interlaced=0 / bluray_compat=0 / constrained_intra=0 / bframes=16 / b_pyramid=2 / b_adapt=2 / b_bias=0 / direct=3 / weightb=1 / open_gop=0 / weightp=2 / keyint=240 / keyint_min=24 / scenecut=40 / intra_refresh=0 / rc_lookahead=48 / rc=crf / mbtree=1 / crf=14.0 / qcomp=0.70 / qpmin=0 / qpmax=81 / qpstep=4 / ip_ratio=1.40 / aq=3:0.80
Language                                 : Japanese
Default                                  : Yes
Forced                                   : No
Color range                              : Limited
Matrix coefficients                      : BT.709

Audio
ID                                       : 2
Format                                   : FLAC
Format/Info                              : Free Lossless Audio Codec
Codec ID                                 : A_FLAC
Duration                                 : 1 min 30 s
Bit rate mode                            : Variable
Bit rate                                 : 1 362 kb/s
Channel(s)                               : 2 channels
Channel positions                        : Front: L R
Sampling rate                            : 48.0 kHz
Frame rate                               : 11.729 FPS (4092 spf)
Bit depth                                : 24 bits
Stream size                              : 14.6 MiB (8%)
Title                                    : 2.0 FLAC
Writing library                          : libFLAC 1.3.1 (UTC 2014-11-25)
Language                                 : Japanese
Default                                  : Yes
Forced                                   : No

Text
ID                                       : 3
Format                                   : ASS
Codec ID                                 : S_TEXT/ASS
Codec ID/Info                            : Advanced Sub Station Alpha
Duration                                 : 1 min 27 s
Bit rate                                 : 127 kb/s
Count of elements                        : 1562
Compression mode                         : Lossless
Stream size                              : 1.32 MiB (1%)
Title                                    : English
Language                                 : English
Default                                  : Yes
Forced                                   : No

Other Files in this Torrent
[RH] Violet Evergarden - NCED (BDRip Hi10 1080p FLAC) [05A3A2F2].mkv
beta
Anime DDL+NZB mirror
Current Time: 25/05/2020 00:58



About/FAQs