[RH] Violet Evergarden - 11 (Dual Audio 720p) [BB6ECE53].mkv


File Size336.0 MB (352,284,136 bytes)
DownloadClickNUpload | DiskoKosmiko | Go4Up | Jheberg | MultiUp | OpenLoad | SolidFiles | ZippyShare
Sendspace: Part1, Part2
Encrypted DownloadDirect
Password:
HashesCRC32: BB6ECE53, MD5: F33FEFC1CC056D6ED553690BEA933BCA, SHA1: A7E26D78C3FFC72F34030DDA79A7826F53D9D016, SHA256: 6E00631D64234046238F10A6AA8B3795E95D6769197D175BE6F5120356201628, ED2K: EC319351B8978F0028144EE880E81E15
Screenshots
screenshotscreenshotscreenshotscreenshotscreenshot
SubtitlesAll Attachments | Signs & Songs [Vivid-Asenshi] [eng, ASS], Dialogue [Vivid-Asenshi] [eng, ASS], Signs & Songs [Netflix] [eng, SRT], Dialogue [Netflix] [eng, SRT]
Additional Info
General
Unique ID                                : 305907063047791472691915087662842290067 (0xE6238EAAB5C9CEB3FA47EFAFA2FA9F93)
Complete name                            : [RH] Violet Evergarden - 11 (Dual Audio 720p) [BB6ECE53].mkv
Format                                   : Matroska
Format version                           : Version 4 / Version 2
File size                                : 336 MiB
Duration                                 : 23 min 39 s
Overall bit rate mode                    : Variable
Overall bit rate                         : 1 986 kb/s
Movie name                               : [RH] Violet Evergarden - 11 [Dual Audio] [WebRip] [720p]
Encoded date                             : UTC 2018-03-24 11:35:07
Writing application                      : mkvmerge v19.0.0 ('Brave Captain') 64-bit
Writing library                          : libebml v1.3.5 + libmatroska v1.4.8
Attachments                              : FOT-KleePro-DB-Str.otf / IwaMinPro-Md-Kami.ttf / IwaOMinPro-Bd-Fate.ttf / justs.ttf / RH-Sans.ttf / RH-Sans-Italic.ttf

Video
ID                                       : 1
Format                                   : AVC
Format/Info                              : Advanced Video Codec
Format profile                           : Main@L3.1
Format settings, CABAC                   : Yes
Format settings, ReFrames                : 3 frames
Codec ID                                 : V_MPEG4/ISO/AVC
Duration                                 : 23 min 39 s
Bit rate mode                            : Variable
Bit rate                                 : 1 702 kb/s
Maximum bit rate                         : 2 535 kb/s
Width                                    : 1 280 pixels
Height                                   : 720 pixels
Display aspect ratio                     : 16:9
Frame rate mode                          : Constant
Frame rate                               : 23.976 (24000/1001) FPS
Color space                              : YUV
Chroma subsampling                       : 4:2:0
Bit depth                                : 8 bits
Scan type                                : Progressive
Bits/(Pixel*Frame)                       : 0.077
Stream size                              : 288 MiB (86%)
Title                                    : 720p h.264
Language                                 : Japanese
Default                                  : Yes
Forced                                   : No

Audio #1
ID                                       : 2
Format                                   : E-AC-3
Format/Info                              : Enhanced Audio Coding 3
Format settings, Endianness              : Big
Codec ID                                 : A_EAC3
Duration                                 : 23 min 39 s
Bit rate mode                            : Constant
Bit rate                                 : 128 kb/s
Channel(s)                               : 2 channels
Channel positions                        : Front: L R
Sampling rate                            : 48.0 kHz
Frame rate                               : 187.500 FPS (256 spf)
Compression mode                         : Lossy
Stream size                              : 21.7 MiB (6%)
Title                                    : 2.0 EAC3
Language                                 : English
Default                                  : Yes
Forced                                   : No

Audio #2
ID                                       : 3
Format                                   : E-AC-3
Format/Info                              : Enhanced Audio Coding 3
Format settings, Endianness              : Big
Codec ID                                 : A_EAC3
Duration                                 : 23 min 39 s
Bit rate mode                            : Constant
Bit rate                                 : 128 kb/s
Channel(s)                               : 2 channels
Channel positions                        : Front: L R
Sampling rate                            : 48.0 kHz
Frame rate                               : 187.500 FPS (256 spf)
Compression mode                         : Lossy
Stream size                              : 21.7 MiB (6%)
Title                                    : 2.0 EAC3
Language                                 : Japanese
Default                                  : No
Forced                                   : No

Text #1
ID                                       : 4
Format                                   : ASS
Codec ID                                 : S_TEXT/ASS
Codec ID/Info                            : Advanced Sub Station Alpha
Duration                                 : 22 min 20 s
Bit rate                                 : 8 321 b/s
Count of elements                        : 1626
Compression mode                         : Lossless
Stream size                              : 1.33 MiB (0%)
Title                                    : Signs & Songs [Vivid-Asenshi]
Language                                 : English
Default                                  : Yes
Forced                                   : No

Text #2
ID                                       : 5
Format                                   : ASS
Codec ID                                 : S_TEXT/ASS
Codec ID/Info                            : Advanced Sub Station Alpha
Duration                                 : 23 min 29 s
Bit rate                                 : 7 983 b/s
Count of elements                        : 1845
Compression mode                         : Lossless
Stream size                              : 1.34 MiB (0%)
Title                                    : Dialogue [Vivid-Asenshi]
Language                                 : English
Default                                  : No
Forced                                   : No

Text #3
ID                                       : 6
Format                                   : UTF-8
Codec ID                                 : S_TEXT/UTF8
Codec ID/Info                            : UTF-8 Plain Text
Duration                                 : 20 min 51 s
Bit rate                                 : 0 b/s
Count of elements                        : 2
Stream size                              : 57.0 Bytes (0%)
Title                                    : Signs & Songs [Netflix]
Language                                 : English
Default                                  : No
Forced                                   : No

Text #4
ID                                       : 7
Format                                   : UTF-8
Codec ID                                 : S_TEXT/UTF8
Codec ID/Info                            : UTF-8 Plain Text
Duration                                 : 22 min 1 s
Bit rate                                 : 41 b/s
Count of elements                        : 238
Stream size                              : 6.62 KiB (0%)
Title                                    : Dialogue [Netflix]
Language                                 : English
Default                                  : No
Forced                                   : No

Menu
00:00:00.000                             : :Intro
00:01:40.934                             : :OP
00:03:10.899                             : :Part A
00:11:25.894                             : :Part B
00:22:09.829                             : :ED

Other Files in this Torrent
[RH] Violet Evergarden - 11 (Dual Audio 720p) [BB6ECE53].mkv
beta
Anime DDL+NZB mirror
Current Time: 04/04/2020 20:58



About/FAQs