[RH] Violet Evergarden - 07 (Dual Audio 720p) [6BD72F7F].mkv


File Size397.4 MB (416,714,366 bytes)
DownloadClickNUpload | DiskoKosmiko | Go4Up | Jheberg | MultiUp | OpenLoad | SolidFiles | ZippyShare
Sendspace: Part1, Part2
Encrypted DownloadDirect
Password:
HashesCRC32: 6BD72F7F, MD5: 3539D24D21BCB2F6F2DF3FFA33613462, SHA1: 218697D971ED17B74DCC20E9ED5335DACC744FFC, SHA256: 1A61F28325FC800BE6891E57EB8D9635A44908411EA36E30D61AA08C1A37071A, ED2K: E8390C491C74C6F0B1073D6C45C11B20
Screenshots
screenshotscreenshotscreenshotscreenshotscreenshot
SubtitlesAll Attachments | Signs & Songs [Vivid-Asenshi] [eng, ASS], Dialogue [Vivid-Asenshi] [eng, ASS], Signs & Songs [Netflix] [eng, SRT], Dialogue [Netflix] [eng, SRT]
Additional Info
General
Unique ID                                : 62945324343124311913649266971424110152 (0x2F5AD418A6E6929B920621F02024B648)
Complete name                            : [RH] Violet Evergarden - 07 (Dual Audio 720p) [6BD72F7F].mkv
Format                                   : Matroska
Format version                           : Version 4 / Version 2
File size                                : 397 MiB
Duration                                 : 23 min 39 s
Overall bit rate mode                    : Variable
Overall bit rate                         : 2 349 kb/s
Movie name                               : [RH] Violet Evergarden - 07 [Dual Audio] [WebRip] [720p]
Encoded date                             : UTC 2018-02-23 13:09:23
Writing application                      : mkvmerge v19.0.0 ('Brave Captain') 64-bit
Writing library                          : libebml v1.3.5 + libmatroska v1.4.8
Attachments                              : FOT-KleePro-DB-Str.otf / IwaOMinPro-Bd-Fate.ttf / justs.ttf / RH-Sans.ttf / RH-Sans-Italic.ttf

Video
ID                                       : 1
Format                                   : AVC
Format/Info                              : Advanced Video Codec
Format profile                           : Main@L3.1
Format settings, CABAC                   : Yes
Format settings, ReFrames                : 3 frames
Codec ID                                 : V_MPEG4/ISO/AVC
Duration                                 : 23 min 39 s
Bit rate mode                            : Variable
Bit rate                                 : 2 067 kb/s
Maximum bit rate                         : 3 075 kb/s
Width                                    : 1 280 pixels
Height                                   : 720 pixels
Display aspect ratio                     : 16:9
Frame rate mode                          : Constant
Frame rate                               : 23.976 (24000/1001) FPS
Color space                              : YUV
Chroma subsampling                       : 4:2:0
Bit depth                                : 8 bits
Scan type                                : Progressive
Bits/(Pixel*Frame)                       : 0.094
Stream size                              : 350 MiB (88%)
Title                                    : 720p h.264
Language                                 : Japanese
Default                                  : Yes
Forced                                   : No

Audio #1
ID                                       : 2
Format                                   : E-AC-3
Format/Info                              : Enhanced Audio Coding 3
Format settings, Endianness              : Big
Codec ID                                 : A_EAC3
Duration                                 : 23 min 39 s
Bit rate mode                            : Constant
Bit rate                                 : 128 kb/s
Channel(s)                               : 2 channels
Channel positions                        : Front: L R
Sampling rate                            : 48.0 kHz
Frame rate                               : 187.500 FPS (256 spf)
Compression mode                         : Lossy
Stream size                              : 21.7 MiB (5%)
Title                                    : 2.0 EAC3
Language                                 : English
Default                                  : Yes
Forced                                   : No

Audio #2
ID                                       : 3
Format                                   : E-AC-3
Format/Info                              : Enhanced Audio Coding 3
Format settings, Endianness              : Big
Codec ID                                 : A_EAC3
Duration                                 : 23 min 39 s
Bit rate mode                            : Constant
Bit rate                                 : 128 kb/s
Channel(s)                               : 2 channels
Channel positions                        : Front: L R
Sampling rate                            : 48.0 kHz
Frame rate                               : 187.500 FPS (256 spf)
Compression mode                         : Lossy
Stream size                              : 21.7 MiB (5%)
Title                                    : 2.0 EAC3
Language                                 : Japanese
Default                                  : No
Forced                                   : No

Text #1
ID                                       : 4
Format                                   : ASS
Codec ID                                 : S_TEXT/ASS
Codec ID/Info                            : Advanced Sub Station Alpha
Duration                                 : 22 min 20 s
Bit rate                                 : 8 321 b/s
Count of elements                        : 1625
Compression mode                         : Lossless
Stream size                              : 1.33 MiB (0%)
Title                                    : Signs & Songs [Vivid-Asenshi]
Language                                 : English
Default                                  : Yes
Forced                                   : No

Text #2
ID                                       : 5
Format                                   : ASS
Codec ID                                 : S_TEXT/ASS
Codec ID/Info                            : Advanced Sub Station Alpha
Duration                                 : 23 min 34 s
Bit rate                                 : 7 981 b/s
Count of elements                        : 1920
Compression mode                         : Lossless
Stream size                              : 1.35 MiB (0%)
Title                                    : Dialogue [Vivid-Asenshi]
Language                                 : English
Default                                  : No
Forced                                   : No

Text #3
ID                                       : 6
Format                                   : UTF-8
Codec ID                                 : S_TEXT/UTF8
Codec ID/Info                            : UTF-8 Plain Text
Duration                                 : 2 s 919 ms
Bit rate                                 : 65 b/s
Count of elements                        : 1
Stream size                              : 24.0 Bytes (0%)
Title                                    : Signs & Songs [Netflix]
Language                                 : English
Default                                  : No
Forced                                   : No

Text #4
ID                                       : 7
Format                                   : UTF-8
Codec ID                                 : S_TEXT/UTF8
Codec ID/Info                            : UTF-8 Plain Text
Duration                                 : 21 min 51 s
Bit rate                                 : 57 b/s
Count of elements                        : 294
Stream size                              : 9.22 KiB (0%)
Title                                    : Dialogue [Netflix]
Language                                 : English
Default                                  : No
Forced                                   : No

Menu
00:00:00.000                             : :Intro
00:01:16.910                             : :OP
00:02:46.958                             : :Part A
00:13:19.924                             : :Part B
00:22:09.870                             : :ED

Other Files in this Torrent
[RH] Violet Evergarden - 07 (Dual Audio 720p) [6BD72F7F].mkv
beta
Anime DDL+NZB mirror
Current Time: 04/04/2020 21:21



About/FAQs