This file has been deleted.
File Size3.060 GB (3,285,305,729 bytes)
DownloadClickNUpload: Part1, Part2
DownloadGG: Part1, Part2, Part3, Part4
KrakenFiles: Part1, Part2, Part3, Part4
MultiUp: Part1
  • BdUpload
  • DownAce
  • Fichier
  • FileCloud
  • Filerio
  • FilesCdn
  • IndiShare
  • Kbagi
  • Turbobit
  • UpToBox
  • Uppit
, Part2
  • BdUpload
  • DownAce
  • Fichier
  • FileCloud
  • Filerio
  • FilesCdn
  • IndiShare
  • Kbagi
  • Turbobit
  • UpToBox
  • Uppit
, Part3
  • BdUpload
  • DownAce
  • Fichier
  • FileCloud
  • Filerio
  • FilesCdn
  • IndiShare
  • Kbagi
  • Turbobit
  • UpToBox
  • Uppit
, Part4
  • BdUpload
  • DownAce
  • Fichier
  • FileCloud
  • Filerio
  • FilesCdn
  • IndiShare
  • Kbagi
  • Turbobit
  • UpToBox
  • Uppit
, Part5
  • BdUpload
  • DownAce
  • Fichier
  • FileCloud
  • Filerio
  • FilesCdn
  • IndiShare
  • Kbagi
  • Turbobit
  • UpToBox
  • Uppit
, Part6
  • BdUpload
  • DownAce
  • Fichier
  • FileCloud
  • Filerio
  • FilesCdn
  • IndiShare
  • Kbagi
  • Turbobit
  • UpToBox
  • Uppit
, Part7
  • BdUpload
  • DownAce
  • Fichier
  • FileCloud
  • Filerio
  • FilesCdn
  • IndiShare
  • Kbagi
  • Turbobit
  • UpToBox
  • Uppit

ZippyShare: Part1, Part2, Part3, Part4, Part5, Part6, Part7
HashesCRC32: 47D57885, MD5: E29EEC005C8B17FF48E9FB9B47BE69B7, SHA1: 67A88F89D587F236C430CDE54F951C8BC47F8949, SHA256: 830F9A0C74A1CB73AE32FFF663299D9C2F6F3385F4ECFD22573ECE6305160A87, ED2K: A7B1830DB7B69467297022AB0A0E6D2D
Screenshots
screenshotscreenshotscreenshotscreenshotscreenshot
SubtitlesAll Attachments | Full Subs [eng, ASS], Signs and Songs [eng, ASS], Full Subs [eng, ASS], Signs and Songs [eng, ASS]
Additional Info
General
Unique ID                                : 298818977674977022247059095066501731397 (0xE0CE71139D48FEA9DB40E9CE830C5445)
Complete name                            : [Reza] Planetarian - S01E05.mkv
Format                                   : Matroska
Format version                           : Version 4
File size                                : 3.06 GiB
Duration                                 : 24 min 6 s
Overall bit rate mode                    : Variable
Overall bit rate                         : 18.2 Mb/s
Movie name                               : [Reza] Planetarian - S01E05
Encoded date                             : UTC 2023-03-18 20:01:11
Writing application                      : mkvmerge v71.1.0 ('Fortitude') 64-bit
Writing library                          : libebml v1.4.4 + libmatroska v1.7.1
Attachments                              : Aver.TTF / GandhiSans-Bold.OTF / GandhiSans-BoldItalic.OTF / InkaBod.TTF / Aver.TTF / GandhiSans-Bold.OTF / GandhiSans-BoldItalic.OTF / InkaBod.TTF

Video
ID                                       : 1
Format                                   : HEVC
Format/Info                              : High Efficiency Video Coding
Format profile                           : Main 10@L5@Main
Codec ID                                 : V_MPEGH/ISO/HEVC
Duration                                 : 24 min 6 s
Bit rate                                 : 12.5 Mb/s
Width                                    : 1 920 pixels
Height                                   : 1 080 pixels
Display aspect ratio                     : 16:9
Frame rate mode                          : Constant
Frame rate                               : 23.976 (24000/1001) FPS
Color space                              : YUV
Chroma subsampling                       : 4:2:0 (Type 0)
Bit depth                                : 10 bits
Bits/(Pixel*Frame)                       : 0.252
Stream size                              : 2.11 GiB (69%)
Title                                    : Encode by Reza
Writing library                          : x265 3.5+67-7ab6b0f5f:[DJATOM's Mod][Windows][GCC 12.2.1][64 bit] 10bit
Encoding settings                        : cpuid=1111039 / frame-threads=5 / numa-pools=32 / wpp / no-pmode / no-pme / no-psnr / no-ssim / log-level=2 / csv / csv-log-level=0 / input-csp=1 / input-res=1920x1080 / interlace=0 / total-frames=34680 / level-idc=0 / high-tier=1 / uhd-bd=0 / ref=6 / no-allow-non-conformance / no-repeat-headers / annexb / no-aud / no-eob / no-eos / no-hrd / info / hash=0 / no-temporal-layers / no-open-gop / min-keyint=23 / keyint=250 / gop-lookahead=0 / bframes=16 / b-adapt=2 / b-pyramid / bframe-bias=0 / rc-lookahead=60 / lookahead-slices=0 / scenecut=40 / no-hist-scenecut / radl=0 / no-splice / no-intra-refresh / ctu=64 / min-cu-size=8 / rect / amp / max-tu-size=32 / tu-inter-depth=3 / tu-intra-depth=3 / limit-tu=4 / rdoq-level=2 / dynamic-rd=0.00 / no-ssim-rd / signhide / no-tskip / nr-intra=0 / nr-inter=0 / no-constrained-intra / no-strong-intra-smoothing / max-merge=4 / limit-refs=1 / limit-modes / me=3 / subme=5 / merange=57 / temporal-mvp / no-frame-dup / no-hme / weightp / weightb / no-analyze-src-pics / deblock=-2:-2 / no-sao / no-sao-non-deblock / rd=4 / selective-sao=0 / no-early-skip / no-rskip / no-fast-intra / no-tskip-fast / no-cu-lossless / b-intra / no-splitrd-skip / rdpenalty=0 / psy-rd=2.25 / psy-rdoq=2.75 / no-rd-refine / no-lossless / cbqpoffs=-3 / crqpoffs=-3 / rc=crf / crf=13.5 / qcomp=0.70 / qpstep=4 / stats-write=0 / stats-read=0 / ipratio=1.40 / pbratio=1.30 / aq-mode=3 / aq-strength=0.65 / aq-bias-strength=1.00 / no-cutree / zone-count=0 / no-strict-cbr / qg-size=32 / no-rc-grain / qpmax=69 / qpmin=0 / no-const-vbv / sar=1 / overscan=0 / videoformat=5 / range=0 / colorprim=1 / transfer=1 / colormatrix=1 / chromaloc=1 / chromaloc-top=0 / chromaloc-bottom=0 / display-window=0 / cll=0,0 / min-luma=0 / max-luma=1023 / log2-max-poc-lsb=8 / vui-timing-info / vui-hrd-info / slices=1 / no-opt-qp-pps / no-opt-ref-list-length-pps / no-multi-pass-opt-rps / scenecut-bias=0.05 / hist-threshold=0.03 / no-opt-cu-delta-qp / no-aq-motion / no-hdr10 / no-hdr10-opt / no-dhdr10-opt / no-idr-recovery-sei / analysis-reuse-level=0 / analysis-save-reuse-level=0 / analysis-load-reuse-level=0 / scale-factor=0 / refine-intra=0 / refine-inter=0 / refine-mv=1 / refine-ctu-distortion=0 / no-limit-sao / ctu-info=0 / no-lowpass-dct / refine-analysis-type=0 / copy-pic=1 / max-ausize-factor=1.0 / no-dynamic-refine / no-single-sei / no-hevc-aq / no-svt / no-field / qp-adaptation-range=1.00 / scenecut-aware-qp=0conformance-window-offsets / right=0 / bottom=0 / decoder-max-rate=0 / no-vbv-live-multi-pass
Language                                 : Japanese
Default                                  : Yes
Forced                                   : No
Color range                              : Limited
Color primaries                          : BT.709
Transfer characteristics                 : BT.709
Matrix coefficients                      : BT.709

Audio #1
ID                                       : 2
Format                                   : FLAC
Format/Info                              : Free Lossless Audio Codec
Codec ID                                 : A_FLAC
Duration                                 : 24 min 6 s
Bit rate mode                            : Variable
Bit rate                                 : 2 390 kb/s
Channel(s)                               : 6 channels
Channel layout                           : L R C LFE Ls Rs
Sampling rate                            : 48.0 kHz
Frame rate                               : 10.417 FPS (4608 SPF)
Bit depth                                : 24 bits
Compression mode                         : Lossless
Stream size                              : 412 MiB (13%)
Title                                    : Japanese 2.0 FLAC
Writing library                          : Lavf59.16.100
Language                                 : Japanese
Default                                  : Yes
Forced                                   : No

Audio #2
ID                                       : 3
Format                                   : FLAC
Format/Info                              : Free Lossless Audio Codec
Codec ID                                 : A_FLAC
Duration                                 : 24 min 6 s
Bit rate mode                            : Variable
Bit rate                                 : 1 625 kb/s
Channel(s)                               : 6 channels
Channel layout                           : L R C LFE Ls Rs
Sampling rate                            : 48.0 kHz
Frame rate                               : 11.719 FPS (4096 SPF)
Bit depth                                : 16 bits
Compression mode                         : Lossless
Stream size                              : 280 MiB (9%)
Title                                    : English
Writing library                          : libFLAC 1.3.1 (UTC 2014-11-25)
Language                                 : English
Default                                  : No
Forced                                   : No

Audio #3
ID                                       : 6
Format                                   : FLAC
Format/Info                              : Free Lossless Audio Codec
Codec ID                                 : A_FLAC
Duration                                 : 24 min 6 s
Bit rate mode                            : Variable
Bit rate                                 : 1 625 kb/s
Channel(s)                               : 6 channels
Channel layout                           : L R C LFE Ls Rs
Sampling rate                            : 48.0 kHz
Frame rate                               : 11.719 FPS (4096 SPF)
Bit depth                                : 16 bits
Compression mode                         : Lossless
Stream size                              : 280 MiB (9%)
Title                                    : English
Writing library                          : libFLAC 1.3.1 (UTC 2014-11-25)
Language                                 : English
Default                                  : No
Forced                                   : No

Text #1
ID                                       : 4
Format                                   : ASS
Codec ID                                 : S_TEXT/ASS
Codec ID/Info                            : Advanced Sub Station Alpha
Duration                                 : 23 min 53 s
Bit rate                                 : 84 b/s
Count of elements                        : 244
Compression mode                         : Lossless
Stream size                              : 14.8 KiB (0%)
Title                                    : Full Subs
Language                                 : English
Default                                  : Yes
Forced                                   : No

Text #2
ID                                       : 5
Format                                   : ASS
Codec ID                                 : S_TEXT/ASS
Codec ID/Info                            : Advanced Sub Station Alpha
Duration                                 : 23 min 18 s
Bit rate                                 : 22 b/s
Count of elements                        : 51
Compression mode                         : Lossless
Stream size                              : 3.87 KiB (0%)
Title                                    : Signs and Songs
Language                                 : English
Default                                  : No
Forced                                   : Yes

Text #3
ID                                       : 7
Format                                   : ASS
Codec ID                                 : S_TEXT/ASS
Codec ID/Info                            : Advanced Sub Station Alpha
Duration                                 : 23 min 53 s
Bit rate                                 : 84 b/s
Count of elements                        : 244
Compression mode                         : Lossless
Stream size                              : 14.8 KiB (0%)
Title                                    : Full Subs
Language                                 : English
Default                                  : Yes
Forced                                   : No

Text #4
ID                                       : 8
Format                                   : ASS
Codec ID                                 : S_TEXT/ASS
Codec ID/Info                            : Advanced Sub Station Alpha
Duration                                 : 23 min 18 s
Bit rate                                 : 22 b/s
Count of elements                        : 51
Compression mode                         : Lossless
Stream size                              : 3.87 KiB (0%)
Title                                    : Signs and Songs
Language                                 : English
Default                                  : No
Forced                                   : Yes

Menu #1
00:00:00.000                             : en:Part A
00:18:57.886                             : en:ED
00:23:29.408                             : en:Part B

Menu #2
00:00:00.000                             : en:Part A
00:18:57.886                             : en:ED
00:23:29.408                             : en:Part B

Other Files in this Torrent
[Reza] Planetarian - S01E05.mkv
beta
Anime DDL+NZB mirror
Current Time: 20/04/2024 09:28



About/FAQs

Discord