This file has been deleted.
File Size1.485 GB (1,594,702,099 bytes)
DownloadClickNUpload
DownloadGG: Part1, Part2
KrakenFiles: Part1, Part2
MultiUp: Part1
  • BdUpload
  • DownAce
  • Fichier
  • FileCloud
  • Filerio
  • FilesCdn
  • IndiShare
  • Kbagi
  • Turbobit
  • UpToBox
  • Uppit
, Part2
  • BdUpload
  • DownAce
  • Fichier
  • FileCloud
  • Filerio
  • FilesCdn
  • IndiShare
  • Kbagi
  • Turbobit
  • UpToBox
  • Uppit
, Part3
  • BdUpload
  • DownAce
  • Fichier
  • FileCloud
  • Filerio
  • FilesCdn
  • IndiShare
  • Kbagi
  • Turbobit
  • UpToBox
  • Uppit
, Part4
  • BdUpload
  • DownAce
  • Fichier
  • FileCloud
  • Filerio
  • FilesCdn
  • IndiShare
  • Kbagi
  • Turbobit
  • UpToBox
  • Uppit

ZippyShare: Part1, Part2, Part3, Part4
HashesCRC32: 3F8640CC, MD5: 3EA21979B1DC446979509795A80CD736, SHA1: DFCFC61347554E0897A2034FA6EE8DB44D746191, SHA256: 19E621CF1C23D170C083D041919DD51C4D93175EF56DAD8718F99177C01A56DB, ED2K: E29CC81868BBF1390DA3D27F69FAD60E
Screenshots
screenshotscreenshotscreenshotscreenshotscreenshot
SubtitlesAll Attachments | Full Subs [eng, ASS], Signs and Songs [eng, ASS]
Additional Info
General
Unique ID                                : 299198708026110604719427881048562827242 (0xE117933A7890A5D74031868813117FEA)
Complete name                            : [Reza] Planetarian - S01E02.mkv
Format                                   : Matroska
Format version                           : Version 4
File size                                : 1.49 GiB
Duration                                 : 13 min 24 s
Overall bit rate mode                    : Variable
Overall bit rate                         : 15.9 Mb/s
Movie name                               : [Reza] Planetarian - S01E02
Encoded date                             : UTC 2023-03-18 20:00:43
Writing application                      : mkvmerge v71.1.0 ('Fortitude') 64-bit
Writing library                          : libebml v1.4.4 + libmatroska v1.7.1
Attachments                              : ArialMT.ttf / Badonk-a-donk.ttf / DoctorSoosBold.ttf / GandhiSans-Bold.OTF / GandhiSans-BoldItalic.OTF / HumanaSansMdITCTTMedium.TTF / InkaBod.TTF / KnightsQuest.ttf / KozMinProStrippedV3-Heavy.OTF / KozukaGothicProL-EN.TTF / KozukaGothicProM-ENG-Medium.ttf / KozukaGothicProStrippedH-Heavy.ttf / KozukaMinchoProStrp-H.OTF / KozukaMinchoProStrp-M.OTF / Leafs.TTF / MyriadPro-Semibold.OTF / Surface-Medium.OTF

Video
ID                                       : 1
Format                                   : HEVC
Format/Info                              : High Efficiency Video Coding
Format profile                           : Main 10@L5@Main
Codec ID                                 : V_MPEGH/ISO/HEVC
Duration                                 : 13 min 24 s
Bit rate                                 : 12.5 Mb/s
Width                                    : 1 920 pixels
Height                                   : 1 080 pixels
Display aspect ratio                     : 16:9
Frame rate mode                          : Constant
Frame rate                               : 23.976 (24000/1001) FPS
Color space                              : YUV
Chroma subsampling                       : 4:2:0 (Type 0)
Bit depth                                : 10 bits
Bits/(Pixel*Frame)                       : 0.251
Stream size                              : 1.17 GiB (79%)
Title                                    : Encode by Reza
Writing library                          : x265 3.5+67-7ab6b0f5f:[DJATOM's Mod][Windows][GCC 12.2.1][64 bit] 10bit
Encoding settings                        : cpuid=1111039 / frame-threads=5 / numa-pools=32 / wpp / no-pmode / no-pme / no-psnr / no-ssim / log-level=2 / csv / csv-log-level=0 / input-csp=1 / input-res=1920x1080 / interlace=0 / total-frames=19284 / level-idc=0 / high-tier=1 / uhd-bd=0 / ref=6 / no-allow-non-conformance / no-repeat-headers / annexb / no-aud / no-eob / no-eos / no-hrd / info / hash=0 / no-temporal-layers / no-open-gop / min-keyint=23 / keyint=250 / gop-lookahead=0 / bframes=16 / b-adapt=2 / b-pyramid / bframe-bias=0 / rc-lookahead=60 / lookahead-slices=4 / scenecut=40 / no-hist-scenecut / radl=0 / no-splice / no-intra-refresh / ctu=64 / min-cu-size=8 / no-rect / no-amp / max-tu-size=32 / tu-inter-depth=3 / tu-intra-depth=3 / limit-tu=0 / rdoq-level=2 / dynamic-rd=0.00 / no-ssim-rd / signhide / no-tskip / nr-intra=0 / nr-inter=0 / no-constrained-intra / no-strong-intra-smoothing / max-merge=3 / limit-refs=3 / limit-modes / me=3 / subme=5 / merange=57 / temporal-mvp / no-frame-dup / no-hme / weightp / weightb / no-analyze-src-pics / deblock=-2:-2 / no-sao / no-sao-non-deblock / rd=4 / selective-sao=0 / no-early-skip / no-rskip / no-fast-intra / no-tskip-fast / no-cu-lossless / b-intra / no-splitrd-skip / rdpenalty=0 / psy-rd=2.25 / psy-rdoq=2.75 / no-rd-refine / no-lossless / cbqpoffs=-3 / crqpoffs=-3 / rc=crf / crf=13.5 / qcomp=0.70 / qpstep=4 / stats-write=0 / stats-read=0 / ipratio=1.40 / pbratio=1.30 / aq-mode=3 / aq-strength=0.65 / aq-bias-strength=1.00 / no-cutree / zone-count=0 / no-strict-cbr / qg-size=32 / no-rc-grain / qpmax=69 / qpmin=0 / no-const-vbv / sar=1 / overscan=0 / videoformat=5 / range=0 / colorprim=1 / transfer=1 / colormatrix=1 / chromaloc=1 / chromaloc-top=0 / chromaloc-bottom=0 / display-window=0 / cll=0,0 / min-luma=0 / max-luma=1023 / log2-max-poc-lsb=8 / vui-timing-info / vui-hrd-info / slices=1 / no-opt-qp-pps / no-opt-ref-list-length-pps / no-multi-pass-opt-rps / scenecut-bias=0.05 / hist-threshold=0.03 / no-opt-cu-delta-qp / no-aq-motion / no-hdr10 / no-hdr10-opt / no-dhdr10-opt / no-idr-recovery-sei / analysis-reuse-level=0 / analysis-save-reuse-level=0 / analysis-load-reuse-level=0 / scale-factor=0 / refine-intra=0 / refine-inter=0 / refine-mv=1 / refine-ctu-distortion=0 / no-limit-sao / ctu-info=0 / no-lowpass-dct / refine-analysis-type=0 / copy-pic=1 / max-ausize-factor=1.0 / no-dynamic-refine / no-single-sei / no-hevc-aq / no-svt / no-field / qp-adaptation-range=1.00 / scenecut-aware-qp=0conformance-window-offsets / right=0 / bottom=0 / decoder-max-rate=0 / no-vbv-live-multi-pass
Language                                 : Japanese
Default                                  : Yes
Forced                                   : No
Color range                              : Limited
Color primaries                          : BT.709
Transfer characteristics                 : BT.709
Matrix coefficients                      : BT.709

Audio #1
ID                                       : 2
Format                                   : FLAC
Format/Info                              : Free Lossless Audio Codec
Codec ID                                 : A_FLAC
Duration                                 : 13 min 24 s
Bit rate mode                            : Variable
Bit rate                                 : 1 797 kb/s
Channel(s)                               : 2 channels
Channel layout                           : L R
Sampling rate                            : 96.0 kHz
Frame rate                               : 11.719 FPS (8192 SPF)
Bit depth                                : 24 bits
Compression mode                         : Lossless
Stream size                              : 172 MiB (11%)
Title                                    : Japanese 2.0 FLAC
Writing library                          : Lavf59.16.100
Language                                 : Japanese
Default                                  : Yes
Forced                                   : No

Audio #2
ID                                       : 3
Format                                   : FLAC
Format/Info                              : Free Lossless Audio Codec
Codec ID                                 : A_FLAC
Duration                                 : 13 min 24 s
Bit rate mode                            : Variable
Bit rate                                 : 1 546 kb/s
Channel(s)                               : 6 channels
Channel layout                           : L R C LFE Ls Rs
Sampling rate                            : 48.0 kHz
Frame rate                               : 11.719 FPS (4096 SPF)
Bit depth                                : 16 bits
Compression mode                         : Lossless
Stream size                              : 148 MiB (10%)
Title                                    : English
Writing library                          : libFLAC 1.3.1 (UTC 2014-11-25)
Language                                 : English
Default                                  : No
Forced                                   : No

Text #1
ID                                       : 4
Format                                   : ASS
Codec ID                                 : S_TEXT/ASS
Codec ID/Info                            : Advanced Sub Station Alpha
Duration                                 : 13 min 20 s
Bit rate                                 : 1 938 b/s
Count of elements                        : 1269
Compression mode                         : Lossless
Stream size                              : 189 KiB (0%)
Title                                    : Full Subs
Language                                 : English
Default                                  : Yes
Forced                                   : No

Text #2
ID                                       : 5
Format                                   : ASS
Codec ID                                 : S_TEXT/ASS
Codec ID/Info                            : Advanced Sub Station Alpha
Duration                                 : 12 min 9 s
Bit rate                                 : 1 999 b/s
Count of elements                        : 1087
Compression mode                         : Lossless
Stream size                              : 178 KiB (0%)
Title                                    : Signs and Songs
Language                                 : English
Default                                  : No
Forced                                   : Yes

Menu
00:00:00.000                             : en:Part A
00:11:18.178                             : en:ED

Other Files in this Torrent
[Reza] Planetarian - S01E02.mkv
beta
Anime DDL+NZB mirror
Current Time: 20/04/2024 10:15



About/FAQs

Discord