[ReinForce] Kyokou Suiri 06 (BDRip 1920x1080 x264 FLAC).mkv


File Size1.202 GB (1,291,088,293 bytes)
DownloadAnonFiles | ClickNUpload | DropAPK
Free: Part1, Part2
MultiUp: Part1
  • BdUpload
  • DownAce
  • Fichier
  • FileCloud
  • Filerio
  • FilesCdn
  • IndiShare
  • Kbagi
  • Turbobit
  • UpToBox
  • Uppit
, Part2
  • BdUpload
  • DownAce
  • Fichier
  • FileCloud
  • Filerio
  • FilesCdn
  • IndiShare
  • Kbagi
  • Turbobit
  • UpToBox
  • Uppit
, Part3
  • BdUpload
  • DownAce
  • Fichier
  • FileCloud
  • Filerio
  • FilesCdn
  • IndiShare
  • Kbagi
  • Turbobit
  • UpToBox
  • Uppit

Sendspace: Part1, Part2, Part3, Part4, Part5
SolidFiles: Part1, Part2, Part3
ZippyShare: Part1, Part2, Part3
HashesCRC32: 8B24F17B, MD5: FE794842D54FCD46D6311E91B5219897, SHA1: F0A42E0C4786B3A75BA12370613B34017F0CFC2F, SHA256: 3838AE1987F78FEFA4E28F1C026C2543E011D8C644DC71262EAA289ACD8CC8D9, ED2K: 1D57432C47BA8FFD21635088D5332D6E
Screenshots
screenshotscreenshotscreenshotscreenshotscreenshot
SubtitlesAll Attachments | eng [ASS]
Additional Info
General
Unique ID                                : 331752472821902541401526020339980318737 (0xF99533C050430287642946D64EEC3811)
Complete name                            : [ReinForce] Kyokou Suiri 06 (BDRip 1920x1080 x264 FLAC).mkv
Format                                   : Matroska
Format version                           : Version 4
File size                                : 1.20 GiB
Duration                                 : 24 min 1 s
Overall bit rate mode                    : Variable
Overall bit rate                         : 7 167 kb/s
Encoded date                             : UTC 2020-07-06 22:35:25
Writing application                      : mkvmerge v38.0.0 ('The Silent Type') 64-bit
Writing library                          : libebml v1.3.9 + libmatroska v1.5.2
Cover                                    : Yes
Attachments                              : 321impact.ttf / AARDVRKB.TTF / AbyssTSFont.ttf / Aero Matics Bold.ttf / Aero Matics Display Bold.ttf / Aero Matics Display Light.ttf / AGaramondPro-Bold.otf / AGaramondPro-Regular.otf / brushtype-normal.ttf / Chocolate Covered Raindrops Bold_0.ttf / Esperanto SemiBold.ttf / GandhiSans-Bold.otf / GandhiSans-BoldItalic.otf / HiraMinProN-W6.otf / UVN Con Thuy.ttf

Video
ID                                       : 1
Format                                   : AVC
Format/Info                              : Advanced Video Codec
Format profile                           : High@L4
Format settings                          : CABAC / 4 Ref Frames
Format settings, CABAC                   : Yes
Format settings, ReFrames                : 4 frames
Codec ID                                 : V_MPEG4/ISO/AVC
Duration                                 : 24 min 1 s
Bit rate                                 : 5 717 kb/s
Width                                    : 1 920 pixels
Height                                   : 1 080 pixels
Display aspect ratio                     : 16:9
Frame rate mode                          : Constant
Frame rate                               : 23.976 (24000/1001) FPS
Color space                              : YUV
Chroma subsampling                       : 4:2:0
Bit depth                                : 8 bits
Scan type                                : Progressive
Bits/(Pixel*Frame)                       : 0.115
Stream size                              : 982 MiB (80%)
Writing library                          : x264 core 157
Encoding settings                        : opencl=1 / cabac=1 / ref=4 / deblock=1:-2:-2 / analyse=0x3:0x113 / me=umh / subme=9 / psy=1 / psy_rd=0.70:0.00 / mixed_ref=0 / me_range=32 / chroma_me=1 / trellis=2 / 8x8dct=1 / cqm=0 / deadzone=21,11 / fast_pskip=1 / chroma_qp_offset=-2 / threads=8 / lookahead_threads=1 / sliced_threads=0 / nr=0 / decimate=1 / interlaced=0 / bluray_compat=0 / constrained_intra=0 / bframes=9 / b_pyramid=2 / b_adapt=2 / b_bias=0 / direct=3 / weightb=1 / open_gop=0 / weightp=2 / keyint=250 / keyint_min=23 / scenecut=40 / intra_refresh=0 / rc_lookahead=40 / rc=crf / mbtree=1 / crf=16.0 / qcomp=0.70 / qpmin=10 / qpmax=20 / qpstep=4 / ip_ratio=1.40 / aq=1:1.00
Default                                  : Yes
Forced                                   : No

Audio
ID                                       : 2
Format                                   : FLAC
Format/Info                              : Free Lossless Audio Codec
Codec ID                                 : A_FLAC
Duration                                 : 24 min 1 s
Bit rate mode                            : Variable
Bit rate                                 : 1 388 kb/s
Channel(s)                               : 2 channels
Channel layout                           : L R
Sampling rate                            : 48.0 kHz
Frame rate                               : 10.417 FPS (4608 SPF)
Bit depth                                : 24 bits
Compression mode                         : Lossless
Stream size                              : 238 MiB (19%)
Writing library                          : Lavf58.29.100
Language                                 : Japanese
Default                                  : Yes
Forced                                   : No

Text
ID                                       : 3
Format                                   : ASS
Codec ID                                 : S_TEXT/ASS
Codec ID/Info                            : Advanced Sub Station Alpha
Duration                                 : 23 min 58 s
Bit rate                                 : 233 b/s
Count of elements                        : 462
Compression mode                         : Lossless
Stream size                              : 41.1 KiB (0%)
Language                                 : English
Default                                  : Yes
Forced                                   : No

Menu
00:00:00.000                             : :Avant
00:00:34.034                             : en:OP
00:02:03.998                             : en:Part A
00:12:42.052                             : en:Part B
00:23:46.049                             : en:Preview

Other Files in this Torrent
[ReinForce] Kyokou Suiri 06 (BDRip 1920x1080 x264 FLAC).mkv
beta
Anime DDL+NZB mirror
Current Time: 05/12/2021 11:23



About/FAQs

Discord