[ReinForce] Kyokou Suiri 05 (BDRip 1920x1080 x264 FLAC).mkv


File Size1.220 GB (1,310,010,743 bytes)
DownloadAnonFiles | ClickNUpload | DropAPK
Free: Part1, Part2
MultiUp: Part1
  • BdUpload
  • DownAce
  • Fichier
  • FileCloud
  • Filerio
  • FilesCdn
  • IndiShare
  • Kbagi
  • Turbobit
  • UpToBox
  • Uppit
, Part2
  • BdUpload
  • DownAce
  • Fichier
  • FileCloud
  • Filerio
  • FilesCdn
  • IndiShare
  • Kbagi
  • Turbobit
  • UpToBox
  • Uppit
, Part3
  • BdUpload
  • DownAce
  • Fichier
  • FileCloud
  • Filerio
  • FilesCdn
  • IndiShare
  • Kbagi
  • Turbobit
  • UpToBox
  • Uppit

Sendspace: Part1, Part2, Part3, Part4, Part5
SolidFiles: Part1, Part2, Part3
ZippyShare: Part1, Part2, Part3
HashesCRC32: 1D2AF6C8, MD5: 93ACF22120769BA96AC14FE2D600F9DB, SHA1: 3F1D6EA6D153EABEB5202CD37FF8D5CD73399A77, SHA256: 51661EA24C41F39BC5659F997A5EF3DA8050A5AAC8A7C1B085EA12B9022D7E03, ED2K: D86FAA858F4FCA0253293C1475D62447
Screenshots
screenshotscreenshotscreenshotscreenshotscreenshot
SubtitlesAll Attachments | eng [ASS]
Additional Info
General
Unique ID                                : 193123794492970332668333426409441653727 (0x914A4A357EBC3B8576692DCD6FF0F3DF)
Complete name                            : [ReinForce] Kyokou Suiri 05 (BDRip 1920x1080 x264 FLAC).mkv
Format                                   : Matroska
Format version                           : Version 4
File size                                : 1.22 GiB
Duration                                 : 24 min 1 s
Overall bit rate mode                    : Variable
Overall bit rate                         : 7 273 kb/s
Encoded date                             : UTC 2020-07-06 22:09:24
Writing application                      : mkvmerge v38.0.0 ('The Silent Type') 64-bit
Writing library                          : libebml v1.3.9 + libmatroska v1.5.2
Cover                                    : Yes
Attachments                              : 321impact.ttf / AARDVRKB.TTF / AbyssTSFont.ttf / Aero Matics Bold.ttf / Aero Matics Display Bold.ttf / Aero Matics Display Light.ttf / AGaramondPro-Bold.otf / AGaramondPro-Regular.otf / brushtype-normal.ttf / Chocolate Covered Raindrops Bold_0.ttf / Esperanto SemiBold.ttf / GandhiSans-Bold.otf / GandhiSans-BoldItalic.otf / HiraMinProN-W6.otf / UVN Con Thuy.ttf

Video
ID                                       : 1
Format                                   : AVC
Format/Info                              : Advanced Video Codec
Format profile                           : High@L4
Format settings                          : CABAC / 4 Ref Frames
Format settings, CABAC                   : Yes
Format settings, ReFrames                : 4 frames
Codec ID                                 : V_MPEG4/ISO/AVC
Duration                                 : 24 min 1 s
Bit rate                                 : 5 803 kb/s
Width                                    : 1 920 pixels
Height                                   : 1 080 pixels
Display aspect ratio                     : 16:9
Frame rate mode                          : Constant
Frame rate                               : 23.976 (24000/1001) FPS
Color space                              : YUV
Chroma subsampling                       : 4:2:0
Bit depth                                : 8 bits
Scan type                                : Progressive
Bits/(Pixel*Frame)                       : 0.117
Stream size                              : 997 MiB (80%)
Writing library                          : x264 core 157
Encoding settings                        : opencl=1 / cabac=1 / ref=4 / deblock=1:-2:-2 / analyse=0x3:0x113 / me=umh / subme=9 / psy=1 / psy_rd=0.70:0.00 / mixed_ref=0 / me_range=32 / chroma_me=1 / trellis=2 / 8x8dct=1 / cqm=0 / deadzone=21,11 / fast_pskip=1 / chroma_qp_offset=-2 / threads=8 / lookahead_threads=1 / sliced_threads=0 / nr=0 / decimate=1 / interlaced=0 / bluray_compat=0 / constrained_intra=0 / bframes=9 / b_pyramid=2 / b_adapt=2 / b_bias=0 / direct=3 / weightb=1 / open_gop=0 / weightp=2 / keyint=250 / keyint_min=23 / scenecut=40 / intra_refresh=0 / rc_lookahead=40 / rc=crf / mbtree=1 / crf=16.0 / qcomp=0.70 / qpmin=10 / qpmax=20 / qpstep=4 / ip_ratio=1.40 / aq=1:1.00
Default                                  : Yes
Forced                                   : No

Audio
ID                                       : 2
Format                                   : FLAC
Format/Info                              : Free Lossless Audio Codec
Codec ID                                 : A_FLAC
Duration                                 : 24 min 1 s
Bit rate mode                            : Variable
Bit rate                                 : 1 407 kb/s
Channel(s)                               : 2 channels
Channel layout                           : L R
Sampling rate                            : 48.0 kHz
Frame rate                               : 10.417 FPS (4608 SPF)
Bit depth                                : 24 bits
Compression mode                         : Lossless
Stream size                              : 242 MiB (19%)
Writing library                          : Lavf58.29.100
Language                                 : Japanese
Default                                  : Yes
Forced                                   : No

Text
ID                                       : 3
Format                                   : ASS
Codec ID                                 : S_TEXT/ASS
Codec ID/Info                            : Advanced Sub Station Alpha
Duration                                 : 23 min 47 s
Bit rate                                 : 764 b/s
Count of elements                        : 1128
Compression mode                         : Lossless
Stream size                              : 133 KiB (0%)
Language                                 : English
Default                                  : Yes
Forced                                   : No

Menu
00:00:00.000                             : :Avant
00:01:23.041                             : en:OP
00:02:53.047                             : en:Part A
00:12:35.045                             : en:Part B
00:22:16.001                             : en:ED
00:23:46.007                             : en:Preview

Other Files in this Torrent
[ReinForce] Kyokou Suiri 05 (BDRip 1920x1080 x264 FLAC).mkv
beta
Anime DDL+NZB mirror
Current Time: 05/12/2021 10:55



About/FAQs

Discord