Pokemon.Concierge.S01E04.Welcome.to.the.Pokemon.Resort.1080p.NF.WEB-DL.DDP5.1.H.264-VARYG.mkv


File Size811.0 MB (850,405,618 bytes)
DownloadClickNUpload | DailyUploads | DownloadGG | GoFile | KrakenFiles | MdiaLoad | Uppit
MultiUp: Part1
  • BdUpload
  • DownAce
  • Fichier
  • FileCloud
  • Filerio
  • FilesCdn
  • IndiShare
  • Kbagi
  • Turbobit
  • UpToBox
  • Uppit
, Part2
  • BdUpload
  • DownAce
  • Fichier
  • FileCloud
  • Filerio
  • FilesCdn
  • IndiShare
  • Kbagi
  • Turbobit
  • UpToBox
  • Uppit
HashesCRC32: E46CE40E, MD5: 7351C4406D8907CC9D9EF8EAA2A97073, SHA1: 6C37B8772B975D4FE2084D6608158501B70DF554, SHA256: 97BD8A46ED0213C9498027241C5FA37F768F6ED2AB93BC2855F84D3DC43FE1FD, ED2K: B5197136842457942C1613A5EE008EDB
Screenshots
screenshotscreenshotscreenshotscreenshotscreenshot
SubtitlesAll Attachments | Forced [eng, SRT], eng [SRT], eng [SRT], SDH [eng, SRT], SDH [jpn, SRT], ara [SRT], cze [SRT], dan [SRT], ger [SRT], SDH [ger, SRT], gre [SRT], Latin American [spa, SRT], Latin American (SDH) [spa, SRT], European [spa, SRT], fin [SRT], fil [SRT], fre [SRT], SDH [fre, SRT], heb [SRT], hrv [SRT], hun [SRT], ind [SRT], ita [SRT], kor [SRT], may [SRT], nob [SRT], dut [SRT], pol [SRT], Brazilian [por, SRT], European [por, SRT], rum [SRT], rus [SRT], swe [SRT], tha [SRT], tur [SRT], ukr [SRT], vie [SRT], Simplified [chi, SRT], Traditional [chi, SRT]
Additional Info
General
Unique ID                                : 230283447248998890949347402674370014940 (0xAD3EFA8A77D9BD078A08BC9DEBCC6EDC)
Complete name                            : Pokemon.Concierge.S01E04.Welcome.to.the.Pokemon.Resort.1080p.NF.WEB-DL.DDP5.1.H.264-VARYG.mkv
Format                                   : Matroska
Format version                           : Version 4
File size                                : 811 MiB
Duration                                 : 20 min 7 s
Overall bit rate mode                    : Variable
Overall bit rate                         : 5 635 kb/s
Frame rate                               : 24.000 FPS
Writing application                      : mkvmerge v81.0 ('Milliontown') 64-bit
Writing library                          : libebml v1.4.4 + libmatroska v1.7.1

Video
ID                                       : 1
Format                                   : AVC
Format/Info                              : Advanced Video Codec
Format profile                           : Main@L4
Format settings                          : CABAC / 3 Ref Frames
Format settings, CABAC                   : Yes
Format settings, Reference frames        : 3 frames
Codec ID                                 : V_MPEG4/ISO/AVC
Duration                                 : 20 min 7 s
Bit rate mode                            : Variable
Bit rate                                 : 4 349 kb/s
Nominal bit rate                         : 5 000 kb/s
Maximum bit rate                         : 7 500 kb/s
Width                                    : 1 920 pixels
Height                                   : 1 080 pixels
Display aspect ratio                     : 16:9
Frame rate mode                          : Constant
Frame rate                               : 24.000 FPS
Color space                              : YUV
Chroma subsampling                       : 4:2:0
Bit depth                                : 8 bits
Scan type                                : Progressive
Bits/(Pixel*Frame)                       : 0.087
Stream size                              : 626 MiB (77%)
Writing library                          : x264 core 148 r2727 7d026e8
Encoding settings                        : cabac=1 / ref=3 / deblock=1:0:0 / analyse=0x1:0x111 / me=umh / subme=10 / psy=1 / psy_rd=1.00:0.00 / mixed_ref=1 / me_range=24 / chroma_me=1 / trellis=2 / 8x8dct=0 / cqm=0 / deadzone=21,11 / fast_pskip=1 / chroma_qp_offset=-2 / threads=6 / lookahead_threads=1 / sliced_threads=0 / nr=0 / decimate=1 / interlaced=0 / bluray_compat=0 / stitchable=1 / constrained_intra=0 / bframes=2 / b_pyramid=0 / b_adapt=2 / b_bias=0 / direct=3 / weightb=1 / open_gop=0 / weightp=2 / keyint=240 / keyint_min=121 / scenecut=0 / intra_refresh=0 / rc_lookahead=48 / rc=2pass / mbtree=1 / bitrate=5000 / ratetol=1.0 / qcomp=0.50 / qpmin=6 / qpmax=51 / qpstep=4 / cplxblur=20.0 / qblur=0.5 / vbv_maxrate=7500 / vbv_bufsize=10000 / nal_hrd=vbr / filler=0 / ip_ratio=1.40 / aq=1:1.00
Default                                  : Yes
Forced                                   : No

Audio #1
ID                                       : 2
Format                                   : E-AC-3
Format/Info                              : Enhanced AC-3
Commercial name                          : Dolby Digital Plus
Codec ID                                 : A_EAC3
Duration                                 : 20 min 7 s
Bit rate mode                            : Constant
Bit rate                                 : 640 kb/s
Channel(s)                               : 6 channels
Channel layout                           : L R C LFE Ls Rs
Sampling rate                            : 48.0 kHz
Frame rate                               : 31.250 FPS (1536 SPF)
Compression mode                         : Lossy
Stream size                              : 92.1 MiB (11%)
Language                                 : Japanese
Service kind                             : Complete Main
Default                                  : Yes
Forced                                   : No

Audio #2
ID                                       : 3
Format                                   : E-AC-3
Format/Info                              : Enhanced AC-3
Commercial name                          : Dolby Digital Plus
Codec ID                                 : A_EAC3
Duration                                 : 20 min 7 s
Bit rate mode                            : Constant
Bit rate                                 : 640 kb/s
Channel(s)                               : 6 channels
Channel layout                           : L R C LFE Ls Rs
Sampling rate                            : 48.0 kHz
Frame rate                               : 31.250 FPS (1536 SPF)
Compression mode                         : Lossy
Stream size                              : 92.1 MiB (11%)
Language                                 : English
Service kind                             : Complete Main
Default                                  : No
Forced                                   : No

Text #1
ID                                       : 4
Format                                   : UTF-8
Codec ID                                 : S_TEXT/UTF8
Codec ID/Info                            : UTF-8 Plain Text
Duration                                 : 2 min 12 s
Bit rate                                 : 39 b/s
Frame rate                               : 0.120 FPS
Count of elements                        : 16
Stream size                              : 655 Bytes (0%)
Title                                    : Forced
Language                                 : English
Default                                  : No
Forced                                   : Yes

Text #2
ID                                       : 5
Format                                   : UTF-8
Codec ID                                 : S_TEXT/UTF8
Codec ID/Info                            : UTF-8 Plain Text
Duration                                 : 12 min 54 s
Bit rate                                 : 58 b/s
Frame rate                               : 0.221 FPS
Count of elements                        : 171
Stream size                              : 5.52 KiB (0%)
Language                                 : English
Default                                  : Yes
Forced                                   : No

Text #3
ID                                       : 6
Format                                   : UTF-8
Codec ID                                 : S_TEXT/UTF8
Codec ID/Info                            : UTF-8 Plain Text
Duration                                 : 13 min 59 s
Bit rate                                 : 64 b/s
Frame rate                               : 0.260 FPS
Count of elements                        : 218
Stream size                              : 6.62 KiB (0%)
Language                                 : English
Default                                  : No
Forced                                   : No

Text #4
ID                                       : 7
Format                                   : UTF-8
Codec ID                                 : S_TEXT/UTF8
Codec ID/Info                            : UTF-8 Plain Text
Duration                                 : 16 min 43 s
Bit rate                                 : 68 b/s
Frame rate                               : 0.280 FPS
Count of elements                        : 281
Stream size                              : 8.36 KiB (0%)
Title                                    : SDH
Language                                 : English
Default                                  : No
Forced                                   : No

Text #5
ID                                       : 8
Format                                   : UTF-8
Codec ID                                 : S_TEXT/UTF8
Codec ID/Info                            : UTF-8 Plain Text
Duration                                 : 16 min 41 s
Bit rate                                 : 79 b/s
Frame rate                               : 0.261 FPS
Count of elements                        : 261
Stream size                              : 9.67 KiB (0%)
Title                                    : SDH
Language                                 : Japanese
Default                                  : No
Forced                                   : No

Text #6
ID                                       : 9
Format                                   : UTF-8
Codec ID                                 : S_TEXT/UTF8
Codec ID/Info                            : UTF-8 Plain Text
Duration                                 : 16 min 29 s
Bit rate                                 : 74 b/s
Frame rate                               : 0.186 FPS
Count of elements                        : 184
Stream size                              : 8.96 KiB (0%)
Language                                 : Arabic
Default                                  : No
Forced                                   : No

Text #7
ID                                       : 10
Format                                   : UTF-8
Codec ID                                 : S_TEXT/UTF8
Codec ID/Info                            : UTF-8 Plain Text
Duration                                 : 16 min 29 s
Bit rate                                 : 46 b/s
Frame rate                               : 0.193 FPS
Count of elements                        : 191
Stream size                              : 5.57 KiB (0%)
Language                                 : Czech
Default                                  : No
Forced                                   : No

Text #8
ID                                       : 11
Format                                   : UTF-8
Codec ID                                 : S_TEXT/UTF8
Codec ID/Info                            : UTF-8 Plain Text
Duration                                 : 16 min 13 s
Bit rate                                 : 48 b/s
Frame rate                               : 0.194 FPS
Count of elements                        : 189
Stream size                              : 5.77 KiB (0%)
Language                                 : Danish
Default                                  : No
Forced                                   : No

Text #9
ID                                       : 12
Format                                   : UTF-8
Codec ID                                 : S_TEXT/UTF8
Codec ID/Info                            : UTF-8 Plain Text
Duration                                 : 16 min 29 s
Bit rate                                 : 49 b/s
Frame rate                               : 0.186 FPS
Count of elements                        : 184
Stream size                              : 6.00 KiB (0%)
Language                                 : German
Default                                  : No
Forced                                   : No

Text #10
ID                                       : 13
Format                                   : UTF-8
Codec ID                                 : S_TEXT/UTF8
Codec ID/Info                            : UTF-8 Plain Text
Duration                                 : 14 min 31 s
Bit rate                                 : 82 b/s
Frame rate                               : 0.280 FPS
Count of elements                        : 244
Stream size                              : 8.79 KiB (0%)
Title                                    : SDH
Language                                 : German
Default                                  : No
Forced                                   : No

Text #11
ID                                       : 14
Format                                   : UTF-8
Codec ID                                 : S_TEXT/UTF8
Codec ID/Info                            : UTF-8 Plain Text
Duration                                 : 16 min 29 s
Bit rate                                 : 79 b/s
Frame rate                               : 0.186 FPS
Count of elements                        : 184
Stream size                              : 9.59 KiB (0%)
Language                                 : Greek
Default                                  : No
Forced                                   : No

Text #12
ID                                       : 15
Format                                   : UTF-8
Codec ID                                 : S_TEXT/UTF8
Codec ID/Info                            : UTF-8 Plain Text
Duration                                 : 16 min 29 s
Bit rate                                 : 48 b/s
Frame rate                               : 0.193 FPS
Count of elements                        : 191
Stream size                              : 5.81 KiB (0%)
Title                                    : Latin American
Language                                 : Spanish (Latin America)
Default                                  : No
Forced                                   : No

Text #13
ID                                       : 16
Format                                   : UTF-8
Codec ID                                 : S_TEXT/UTF8
Codec ID/Info                            : UTF-8 Plain Text
Duration                                 : 17 min 0 s
Bit rate                                 : 58 b/s
Frame rate                               : 0.235 FPS
Count of elements                        : 240
Stream size                              : 7.35 KiB (0%)
Title                                    : Latin American (SDH)
Language                                 : Spanish (Latin America)
Default                                  : No
Forced                                   : No

Text #14
ID                                       : 17
Format                                   : UTF-8
Codec ID                                 : S_TEXT/UTF8
Codec ID/Info                            : UTF-8 Plain Text
Duration                                 : 16 min 29 s
Bit rate                                 : 47 b/s
Frame rate                               : 0.193 FPS
Count of elements                        : 191
Stream size                              : 5.71 KiB (0%)
Title                                    : European
Language                                 : Spanish (ES)
Default                                  : No
Forced                                   : No

Text #15
ID                                       : 18
Format                                   : UTF-8
Codec ID                                 : S_TEXT/UTF8
Codec ID/Info                            : UTF-8 Plain Text
Duration                                 : 16 min 29 s
Bit rate                                 : 46 b/s
Frame rate                               : 0.193 FPS
Count of elements                        : 191
Stream size                              : 5.65 KiB (0%)
Language                                 : Finnish
Default                                  : No
Forced                                   : No

Text #16
ID                                       : 19
Format                                   : UTF-8
Codec ID                                 : S_TEXT/UTF8
Codec ID/Info                            : UTF-8 Plain Text
Duration                                 : 16 min 29 s
Bit rate                                 : 49 b/s
Frame rate                               : 0.191 FPS
Count of elements                        : 189
Stream size                              : 5.98 KiB (0%)
Language                                 : Filipino
Default                                  : No
Forced                                   : No

Text #17
ID                                       : 20
Format                                   : UTF-8
Codec ID                                 : S_TEXT/UTF8
Codec ID/Info                            : UTF-8 Plain Text
Duration                                 : 16 min 29 s
Bit rate                                 : 49 b/s
Frame rate                               : 0.193 FPS
Count of elements                        : 191
Stream size                              : 5.98 KiB (0%)
Language                                 : French
Default                                  : No
Forced                                   : No

Text #18
ID                                       : 21
Format                                   : UTF-8
Codec ID                                 : S_TEXT/UTF8
Codec ID/Info                            : UTF-8 Plain Text
Duration                                 : 17 min 2 s
Bit rate                                 : 80 b/s
Frame rate                               : 0.308 FPS
Count of elements                        : 315
Stream size                              : 10.0 KiB (0%)
Title                                    : SDH
Language                                 : French
Default                                  : No
Forced                                   : No

Text #19
ID                                       : 22
Format                                   : UTF-8
Codec ID                                 : S_TEXT/UTF8
Codec ID/Info                            : UTF-8 Plain Text
Duration                                 : 16 min 29 s
Bit rate                                 : 65 b/s
Frame rate                               : 0.186 FPS
Count of elements                        : 184
Stream size                              : 7.85 KiB (0%)
Language                                 : Hebrew
Default                                  : No
Forced                                   : No

Text #20
ID                                       : 23
Format                                   : UTF-8
Codec ID                                 : S_TEXT/UTF8
Codec ID/Info                            : UTF-8 Plain Text
Duration                                 : 16 min 29 s
Bit rate                                 : 38 b/s
Frame rate                               : 0.184 FPS
Count of elements                        : 182
Stream size                              : 4.65 KiB (0%)
Language                                 : Croatian
Default                                  : No
Forced                                   : No

Text #21
ID                                       : 24
Format                                   : UTF-8
Codec ID                                 : S_TEXT/UTF8
Codec ID/Info                            : UTF-8 Plain Text
Duration                                 : 16 min 29 s
Bit rate                                 : 47 b/s
Frame rate                               : 0.191 FPS
Count of elements                        : 189
Stream size                              : 5.70 KiB (0%)
Language                                 : Hungarian
Default                                  : No
Forced                                   : No

Text #22
ID                                       : 25
Format                                   : UTF-8
Codec ID                                 : S_TEXT/UTF8
Codec ID/Info                            : UTF-8 Plain Text
Duration                                 : 16 min 29 s
Bit rate                                 : 41 b/s
Frame rate                               : 0.173 FPS
Count of elements                        : 171
Stream size                              : 5.03 KiB (0%)
Language                                 : Indonesian
Default                                  : No
Forced                                   : No

Text #23
ID                                       : 26
Format                                   : UTF-8
Codec ID                                 : S_TEXT/UTF8
Codec ID/Info                            : UTF-8 Plain Text
Duration                                 : 16 min 29 s
Bit rate                                 : 42 b/s
Frame rate                               : 0.186 FPS
Count of elements                        : 184
Stream size                              : 5.12 KiB (0%)
Language                                 : Italian
Default                                  : No
Forced                                   : No

Text #24
ID                                       : 27
Format                                   : UTF-8
Codec ID                                 : S_TEXT/UTF8
Codec ID/Info                            : UTF-8 Plain Text
Duration                                 : 13 min 45 s
Bit rate                                 : 59 b/s
Frame rate                               : 0.229 FPS
Count of elements                        : 189
Stream size                              : 6.03 KiB (0%)
Language                                 : Korean
Default                                  : No
Forced                                   : No

Text #25
ID                                       : 28
Format                                   : UTF-8
Codec ID                                 : S_TEXT/UTF8
Codec ID/Info                            : UTF-8 Plain Text
Duration                                 : 16 min 29 s
Bit rate                                 : 48 b/s
Frame rate                               : 0.190 FPS
Count of elements                        : 188
Stream size                              : 5.88 KiB (0%)
Language                                 : Malay
Default                                  : No
Forced                                   : No

Text #26
ID                                       : 29
Format                                   : UTF-8
Codec ID                                 : S_TEXT/UTF8
Codec ID/Info                            : UTF-8 Plain Text
Duration                                 : 16 min 29 s
Bit rate                                 : 48 b/s
Frame rate                               : 0.192 FPS
Count of elements                        : 190
Stream size                              : 5.80 KiB (0%)
Language                                 : Norwegian Bokmal
Default                                  : No
Forced                                   : No

Text #27
ID                                       : 30
Format                                   : UTF-8
Codec ID                                 : S_TEXT/UTF8
Codec ID/Info                            : UTF-8 Plain Text
Duration                                 : 16 min 29 s
Bit rate                                 : 43 b/s
Frame rate                               : 0.186 FPS
Count of elements                        : 184
Stream size                              : 5.22 KiB (0%)
Language                                 : Dutch
Default                                  : No
Forced                                   : No

Text #28
ID                                       : 31
Format                                   : UTF-8
Codec ID                                 : S_TEXT/UTF8
Codec ID/Info                            : UTF-8 Plain Text
Duration                                 : 16 min 29 s
Bit rate                                 : 45 b/s
Frame rate                               : 0.186 FPS
Count of elements                        : 184
Stream size                              : 5.49 KiB (0%)
Language                                 : Polish
Default                                  : No
Forced                                   : No

Text #29
ID                                       : 32
Format                                   : UTF-8
Codec ID                                 : S_TEXT/UTF8
Codec ID/Info                            : UTF-8 Plain Text
Duration                                 : 16 min 29 s
Bit rate                                 : 43 b/s
Frame rate                               : 0.191 FPS
Count of elements                        : 189
Stream size                              : 5.28 KiB (0%)
Title                                    : Brazilian
Language                                 : Portuguese (BR)
Default                                  : No
Forced                                   : No

Text #30
ID                                       : 33
Format                                   : UTF-8
Codec ID                                 : S_TEXT/UTF8
Codec ID/Info                            : UTF-8 Plain Text
Duration                                 : 16 min 29 s
Bit rate                                 : 46 b/s
Frame rate                               : 0.185 FPS
Count of elements                        : 183
Stream size                              : 5.57 KiB (0%)
Title                                    : European
Language                                 : Portuguese (PT)
Default                                  : No
Forced                                   : No

Text #31
ID                                       : 34
Format                                   : UTF-8
Codec ID                                 : S_TEXT/UTF8
Codec ID/Info                            : UTF-8 Plain Text
Duration                                 : 16 min 29 s
Bit rate                                 : 47 b/s
Frame rate                               : 0.191 FPS
Count of elements                        : 189
Stream size                              : 5.79 KiB (0%)
Language                                 : Romanian
Default                                  : No
Forced                                   : No

Text #32
ID                                       : 35
Format                                   : UTF-8
Codec ID                                 : S_TEXT/UTF8
Codec ID/Info                            : UTF-8 Plain Text
Duration                                 : 16 min 29 s
Bit rate                                 : 76 b/s
Frame rate                               : 0.193 FPS
Count of elements                        : 191
Stream size                              : 9.25 KiB (0%)
Language                                 : Russian
Default                                  : No
Forced                                   : No

Text #33
ID                                       : 36
Format                                   : UTF-8
Codec ID                                 : S_TEXT/UTF8
Codec ID/Info                            : UTF-8 Plain Text
Duration                                 : 16 min 29 s
Bit rate                                 : 46 b/s
Frame rate                               : 0.186 FPS
Count of elements                        : 184
Stream size                              : 5.61 KiB (0%)
Language                                 : Swedish
Default                                  : No
Forced                                   : No

Text #34
ID                                       : 37
Format                                   : UTF-8
Codec ID                                 : S_TEXT/UTF8
Codec ID/Info                            : UTF-8 Plain Text
Duration                                 : 16 min 29 s
Bit rate                                 : 108 b/s
Frame rate                               : 0.191 FPS
Count of elements                        : 189
Stream size                              : 13.1 KiB (0%)
Language                                 : Thai
Default                                  : No
Forced                                   : No

Text #35
ID                                       : 38
Format                                   : UTF-8
Codec ID                                 : S_TEXT/UTF8
Codec ID/Info                            : UTF-8 Plain Text
Duration                                 : 16 min 29 s
Bit rate                                 : 47 b/s
Frame rate                               : 0.186 FPS
Count of elements                        : 184
Stream size                              : 5.76 KiB (0%)
Language                                 : Turkish
Default                                  : No
Forced                                   : No

Text #36
ID                                       : 39
Format                                   : UTF-8
Codec ID                                 : S_TEXT/UTF8
Codec ID/Info                            : UTF-8 Plain Text
Duration                                 : 16 min 29 s
Bit rate                                 : 77 b/s
Frame rate                               : 0.193 FPS
Count of elements                        : 191
Stream size                              : 9.36 KiB (0%)
Language                                 : Ukrainian
Default                                  : No
Forced                                   : No

Text #37
ID                                       : 40
Format                                   : UTF-8
Codec ID                                 : S_TEXT/UTF8
Codec ID/Info                            : UTF-8 Plain Text
Duration                                 : 16 min 29 s
Bit rate                                 : 57 b/s
Frame rate                               : 0.190 FPS
Count of elements                        : 188
Stream size                              : 6.99 KiB (0%)
Language                                 : Vietnamese
Default                                  : No
Forced                                   : No

Text #38
ID                                       : 41
Format                                   : UTF-8
Codec ID                                 : S_TEXT/UTF8
Codec ID/Info                            : UTF-8 Plain Text
Duration                                 : 13 min 45 s
Bit rate                                 : 51 b/s
Frame rate                               : 0.229 FPS
Count of elements                        : 189
Stream size                              : 5.20 KiB (0%)
Title                                    : Simplified
Language                                 : Chinese (Simplified)
Default                                  : No
Forced                                   : No

Text #39
ID                                       : 42
Format                                   : UTF-8
Codec ID                                 : S_TEXT/UTF8
Codec ID/Info                            : UTF-8 Plain Text
Duration                                 : 13 min 45 s
Bit rate                                 : 53 b/s
Frame rate                               : 0.229 FPS
Count of elements                        : 189
Stream size                              : 5.37 KiB (0%)
Title                                    : Traditional
Language                                 : Chinese (Traditional)
Default                                  : No
Forced                                   : No

Menu
00:00:00.000                             : en:Scene 1
00:16:51.450                             : en:Credits

Other Files in this Torrent
Pokemon.Concierge.S01E04.Welcome.to.the.Pokemon.Resort.1080p.NF.WEB-DL.DDP5.1.H.264-VARYG.mkv
beta
Anime DDL+NZB mirror
Current Time: 13/07/2024 18:21



About/FAQs

Discord