Pokemon.Concierge.S01E01.Im.Haru.the.New.Concierge.1080p.NF.WEB-DL.DDP5.1.H.264-VARYG.mkv


File Size1.158 GB (1,243,821,383 bytes)
DownloadClickNUpload | GoFile | MdiaLoad
DailyUploads: Part1, Part2
DownloadGG: Part1, Part2
KrakenFiles: Part1, Part2
MultiUp: Part1
  • BdUpload
  • DownAce
  • Fichier
  • FileCloud
  • Filerio
  • FilesCdn
  • IndiShare
  • Kbagi
  • Turbobit
  • UpToBox
  • Uppit
, Part2
  • BdUpload
  • DownAce
  • Fichier
  • FileCloud
  • Filerio
  • FilesCdn
  • IndiShare
  • Kbagi
  • Turbobit
  • UpToBox
  • Uppit
, Part3
  • BdUpload
  • DownAce
  • Fichier
  • FileCloud
  • Filerio
  • FilesCdn
  • IndiShare
  • Kbagi
  • Turbobit
  • UpToBox
  • Uppit

Uppit: Part1, Part2
HashesCRC32: 0F2F69F5, MD5: 9CDC94A1BB021D124CB60608CC492815, SHA1: 800676FB67D719F19F919FA27B483E5D65D8B6ED, SHA256: F50F01A9C30687AF051214AD7A43ABE47CC3EA9C44911AA6C7F7A8BEC02B8D59, ED2K: 5DC740577D246B931B25FC480F1D698D
Screenshots
screenshotscreenshotscreenshotscreenshotscreenshot
SubtitlesAll Attachments | eng [SRT], eng [SRT], SDH [eng, SRT], SDH [jpn, SRT], ara [SRT], cze [SRT], dan [SRT], ger [SRT], SDH [ger, SRT], gre [SRT], Latin American [spa, SRT], Latin American (SDH) [spa, SRT], European [spa, SRT], fin [SRT], fil [SRT], fre [SRT], SDH [fre, SRT], heb [SRT], hrv [SRT], hun [SRT], ind [SRT], ita [SRT], kor [SRT], may [SRT], nob [SRT], dut [SRT], pol [SRT], Brazilian [por, SRT], European [por, SRT], rum [SRT], rus [SRT], swe [SRT], tha [SRT], tur [SRT], ukr [SRT], vie [SRT], Simplified [chi, SRT], Traditional [chi, SRT]
Additional Info
General
Unique ID                                : 102907057394215536088537046583212900048 (0x4D6B2DA731B0C877F1C1FC56D49DFED0)
Complete name                            : Pokemon.Concierge.S01E01.Im.Haru.the.New.Concierge.1080p.NF.WEB-DL.DDP5.1.H.264-VARYG.mkv
Format                                   : Matroska
Format version                           : Version 4
File size                                : 1.16 GiB
Duration                                 : 19 min 33 s
Overall bit rate mode                    : Variable
Overall bit rate                         : 8 479 kb/s
Frame rate                               : 24.000 FPS
Writing application                      : mkvmerge v81.0 ('Milliontown') 64-bit
Writing library                          : libebml v1.4.4 + libmatroska v1.7.1

Video
ID                                       : 1
Format                                   : AVC
Format/Info                              : Advanced Video Codec
Format profile                           : High@L4
Format settings                          : CABAC / 4 Ref Frames
Format settings, CABAC                   : Yes
Format settings, Reference frames        : 4 frames
Codec ID                                 : V_MPEG4/ISO/AVC
Duration                                 : 19 min 33 s
Bit rate mode                            : Variable
Bit rate                                 : 7 193 kb/s
Maximum bit rate                         : 20.0 Mb/s
Width                                    : 1 920 pixels
Height                                   : 1 080 pixels
Display aspect ratio                     : 16:9
Frame rate mode                          : Constant
Frame rate                               : 24.000 FPS
Color space                              : YUV
Chroma subsampling                       : 4:2:0
Bit depth                                : 8 bits
Scan type                                : Progressive
Bits/(Pixel*Frame)                       : 0.145
Stream size                              : 1 006 MiB (85%)
Writing library                          : x264 core 148 r2727 7d026e8
Encoding settings                        : cabac=1 / ref=4 / deblock=1:0:0 / analyse=0x3:0x111 / me=umh / subme=10 / psy=1 / psy_rd=1.00:0.00 / mixed_ref=1 / me_range=120 / chroma_me=1 / trellis=2 / 8x8dct=1 / cqm=0 / deadzone=21,11 / fast_pskip=1 / chroma_qp_offset=-2 / threads=6 / lookahead_threads=1 / sliced_threads=0 / nr=0 / decimate=1 / interlaced=0 / bluray_compat=0 / stitchable=1 / constrained_intra=0 / bframes=16 / b_pyramid=2 / b_adapt=2 / b_bias=0 / direct=3 / weightb=1 / open_gop=0 / weightp=2 / keyint=240 / keyint_min=121 / scenecut=0 / intra_refresh=0 / rc_lookahead=240 / rc=crf / mbtree=1 / crf=16.0 / qcomp=0.50 / qpmin=6 / qpmax=51 / qpstep=4 / vbv_maxrate=20000 / vbv_bufsize=25000 / crf_max=0.0 / nal_hrd=vbr / filler=0 / ip_ratio=1.40 / aq=1:0.80
Default                                  : Yes
Forced                                   : No

Audio #1
ID                                       : 2
Format                                   : E-AC-3
Format/Info                              : Enhanced AC-3
Commercial name                          : Dolby Digital Plus
Codec ID                                 : A_EAC3
Duration                                 : 19 min 33 s
Bit rate mode                            : Constant
Bit rate                                 : 640 kb/s
Channel(s)                               : 6 channels
Channel layout                           : L R C LFE Ls Rs
Sampling rate                            : 48.0 kHz
Frame rate                               : 31.250 FPS (1536 SPF)
Compression mode                         : Lossy
Stream size                              : 89.5 MiB (8%)
Language                                 : Japanese
Service kind                             : Complete Main
Default                                  : Yes
Forced                                   : No

Audio #2
ID                                       : 3
Format                                   : E-AC-3
Format/Info                              : Enhanced AC-3
Commercial name                          : Dolby Digital Plus
Codec ID                                 : A_EAC3
Duration                                 : 19 min 33 s
Bit rate mode                            : Constant
Bit rate                                 : 640 kb/s
Channel(s)                               : 6 channels
Channel layout                           : L R C LFE Ls Rs
Sampling rate                            : 48.0 kHz
Frame rate                               : 31.250 FPS (1536 SPF)
Compression mode                         : Lossy
Stream size                              : 89.5 MiB (8%)
Language                                 : English
Service kind                             : Complete Main
Default                                  : No
Forced                                   : No

Text #1
ID                                       : 4
Format                                   : UTF-8
Codec ID                                 : S_TEXT/UTF8
Codec ID/Info                            : UTF-8 Plain Text
Duration                                 : 14 min 9 s
Bit rate                                 : 61 b/s
Frame rate                               : 0.232 FPS
Count of elements                        : 197
Stream size                              : 6.37 KiB (0%)
Language                                 : English
Default                                  : Yes
Forced                                   : No

Text #2
ID                                       : 5
Format                                   : UTF-8
Codec ID                                 : S_TEXT/UTF8
Codec ID/Info                            : UTF-8 Plain Text
Duration                                 : 14 min 9 s
Bit rate                                 : 66 b/s
Frame rate                               : 0.265 FPS
Count of elements                        : 225
Stream size                              : 6.85 KiB (0%)
Language                                 : English
Default                                  : No
Forced                                   : No

Text #3
ID                                       : 6
Format                                   : UTF-8
Codec ID                                 : S_TEXT/UTF8
Codec ID/Info                            : UTF-8 Plain Text
Duration                                 : 16 min 4 s
Bit rate                                 : 74 b/s
Frame rate                               : 0.307 FPS
Count of elements                        : 296
Stream size                              : 8.83 KiB (0%)
Title                                    : SDH
Language                                 : English
Default                                  : No
Forced                                   : No

Text #4
ID                                       : 7
Format                                   : UTF-8
Codec ID                                 : S_TEXT/UTF8
Codec ID/Info                            : UTF-8 Plain Text
Duration                                 : 16 min 6 s
Bit rate                                 : 81 b/s
Frame rate                               : 0.283 FPS
Count of elements                        : 274
Stream size                              : 9.56 KiB (0%)
Title                                    : SDH
Language                                 : Japanese
Default                                  : No
Forced                                   : No

Text #5
ID                                       : 8
Format                                   : UTF-8
Codec ID                                 : S_TEXT/UTF8
Codec ID/Info                            : UTF-8 Plain Text
Duration                                 : 16 min 20 s
Bit rate                                 : 77 b/s
Frame rate                               : 0.204 FPS
Count of elements                        : 200
Stream size                              : 9.31 KiB (0%)
Language                                 : Arabic
Default                                  : No
Forced                                   : No

Text #6
ID                                       : 9
Format                                   : UTF-8
Codec ID                                 : S_TEXT/UTF8
Codec ID/Info                            : UTF-8 Plain Text
Duration                                 : 16 min 20 s
Bit rate                                 : 48 b/s
Frame rate                               : 0.204 FPS
Count of elements                        : 200
Stream size                              : 5.85 KiB (0%)
Language                                 : Czech
Default                                  : No
Forced                                   : No

Text #7
ID                                       : 10
Format                                   : UTF-8
Codec ID                                 : S_TEXT/UTF8
Codec ID/Info                            : UTF-8 Plain Text
Duration                                 : 16 min 0 s
Bit rate                                 : 53 b/s
Frame rate                               : 0.206 FPS
Count of elements                        : 198
Stream size                              : 6.23 KiB (0%)
Language                                 : Danish
Default                                  : No
Forced                                   : No

Text #8
ID                                       : 11
Format                                   : UTF-8
Codec ID                                 : S_TEXT/UTF8
Codec ID/Info                            : UTF-8 Plain Text
Duration                                 : 16 min 20 s
Bit rate                                 : 56 b/s
Frame rate                               : 0.203 FPS
Count of elements                        : 199
Stream size                              : 6.74 KiB (0%)
Language                                 : German
Default                                  : No
Forced                                   : No

Text #9
ID                                       : 12
Format                                   : UTF-8
Codec ID                                 : S_TEXT/UTF8
Codec ID/Info                            : UTF-8 Plain Text
Duration                                 : 14 min 21 s
Bit rate                                 : 97 b/s
Frame rate                               : 0.332 FPS
Count of elements                        : 286
Stream size                              : 10.3 KiB (0%)
Title                                    : SDH
Language                                 : German
Default                                  : No
Forced                                   : No

Text #10
ID                                       : 13
Format                                   : UTF-8
Codec ID                                 : S_TEXT/UTF8
Codec ID/Info                            : UTF-8 Plain Text
Duration                                 : 16 min 20 s
Bit rate                                 : 87 b/s
Frame rate                               : 0.203 FPS
Count of elements                        : 199
Stream size                              : 10.5 KiB (0%)
Language                                 : Greek
Default                                  : No
Forced                                   : No

Text #11
ID                                       : 14
Format                                   : UTF-8
Codec ID                                 : S_TEXT/UTF8
Codec ID/Info                            : UTF-8 Plain Text
Duration                                 : 16 min 20 s
Bit rate                                 : 54 b/s
Frame rate                               : 0.198 FPS
Count of elements                        : 194
Stream size                              : 6.46 KiB (0%)
Title                                    : Latin American
Language                                 : Spanish (Latin America)
Default                                  : No
Forced                                   : No

Text #12
ID                                       : 15
Format                                   : UTF-8
Codec ID                                 : S_TEXT/UTF8
Codec ID/Info                            : UTF-8 Plain Text
Duration                                 : 16 min 25 s
Bit rate                                 : 65 b/s
Frame rate                               : 0.247 FPS
Count of elements                        : 243
Stream size                              : 7.93 KiB (0%)
Title                                    : Latin American (SDH)
Language                                 : Spanish (Latin America)
Default                                  : No
Forced                                   : No

Text #13
ID                                       : 16
Format                                   : UTF-8
Codec ID                                 : S_TEXT/UTF8
Codec ID/Info                            : UTF-8 Plain Text
Duration                                 : 16 min 20 s
Bit rate                                 : 51 b/s
Frame rate                               : 0.203 FPS
Count of elements                        : 199
Stream size                              : 6.18 KiB (0%)
Title                                    : European
Language                                 : Spanish (ES)
Default                                  : No
Forced                                   : No

Text #14
ID                                       : 17
Format                                   : UTF-8
Codec ID                                 : S_TEXT/UTF8
Codec ID/Info                            : UTF-8 Plain Text
Duration                                 : 16 min 20 s
Bit rate                                 : 49 b/s
Frame rate                               : 0.204 FPS
Count of elements                        : 200
Stream size                              : 5.88 KiB (0%)
Language                                 : Finnish
Default                                  : No
Forced                                   : No

Text #15
ID                                       : 18
Format                                   : UTF-8
Codec ID                                 : S_TEXT/UTF8
Codec ID/Info                            : UTF-8 Plain Text
Duration                                 : 16 min 20 s
Bit rate                                 : 57 b/s
Frame rate                               : 0.208 FPS
Count of elements                        : 204
Stream size                              : 6.87 KiB (0%)
Language                                 : Filipino
Default                                  : No
Forced                                   : No

Text #16
ID                                       : 19
Format                                   : UTF-8
Codec ID                                 : S_TEXT/UTF8
Codec ID/Info                            : UTF-8 Plain Text
Duration                                 : 16 min 20 s
Bit rate                                 : 54 b/s
Frame rate                               : 0.204 FPS
Count of elements                        : 200
Stream size                              : 6.52 KiB (0%)
Language                                 : French
Default                                  : No
Forced                                   : No

Text #17
ID                                       : 20
Format                                   : UTF-8
Codec ID                                 : S_TEXT/UTF8
Codec ID/Info                            : UTF-8 Plain Text
Duration                                 : 16 min 26 s
Bit rate                                 : 87 b/s
Frame rate                               : 0.320 FPS
Count of elements                        : 316
Stream size                              : 10.6 KiB (0%)
Title                                    : SDH
Language                                 : French
Default                                  : No
Forced                                   : No

Text #18
ID                                       : 21
Format                                   : UTF-8
Codec ID                                 : S_TEXT/UTF8
Codec ID/Info                            : UTF-8 Plain Text
Duration                                 : 16 min 20 s
Bit rate                                 : 70 b/s
Frame rate                               : 0.204 FPS
Count of elements                        : 200
Stream size                              : 8.44 KiB (0%)
Language                                 : Hebrew
Default                                  : No
Forced                                   : No

Text #19
ID                                       : 22
Format                                   : UTF-8
Codec ID                                 : S_TEXT/UTF8
Codec ID/Info                            : UTF-8 Plain Text
Duration                                 : 16 min 20 s
Bit rate                                 : 43 b/s
Frame rate                               : 0.202 FPS
Count of elements                        : 198
Stream size                              : 5.26 KiB (0%)
Language                                 : Croatian
Default                                  : No
Forced                                   : No

Text #20
ID                                       : 23
Format                                   : UTF-8
Codec ID                                 : S_TEXT/UTF8
Codec ID/Info                            : UTF-8 Plain Text
Duration                                 : 16 min 20 s
Bit rate                                 : 52 b/s
Frame rate                               : 0.202 FPS
Count of elements                        : 198
Stream size                              : 6.30 KiB (0%)
Language                                 : Hungarian
Default                                  : No
Forced                                   : No

Text #21
ID                                       : 24
Format                                   : UTF-8
Codec ID                                 : S_TEXT/UTF8
Codec ID/Info                            : UTF-8 Plain Text
Duration                                 : 16 min 20 s
Bit rate                                 : 50 b/s
Frame rate                               : 0.203 FPS
Count of elements                        : 199
Stream size                              : 6.09 KiB (0%)
Language                                 : Indonesian
Default                                  : No
Forced                                   : No

Text #22
ID                                       : 25
Format                                   : UTF-8
Codec ID                                 : S_TEXT/UTF8
Codec ID/Info                            : UTF-8 Plain Text
Duration                                 : 16 min 20 s
Bit rate                                 : 47 b/s
Frame rate                               : 0.202 FPS
Count of elements                        : 198
Stream size                              : 5.68 KiB (0%)
Language                                 : Italian
Default                                  : No
Forced                                   : No

Text #23
ID                                       : 26
Format                                   : UTF-8
Codec ID                                 : S_TEXT/UTF8
Codec ID/Info                            : UTF-8 Plain Text
Duration                                 : 14 min 9 s
Bit rate                                 : 61 b/s
Frame rate                               : 0.235 FPS
Count of elements                        : 200
Stream size                              : 6.33 KiB (0%)
Language                                 : Korean
Default                                  : No
Forced                                   : No

Text #24
ID                                       : 27
Format                                   : UTF-8
Codec ID                                 : S_TEXT/UTF8
Codec ID/Info                            : UTF-8 Plain Text
Duration                                 : 16 min 20 s
Bit rate                                 : 52 b/s
Frame rate                               : 0.202 FPS
Count of elements                        : 198
Stream size                              : 6.34 KiB (0%)
Language                                 : Malay
Default                                  : No
Forced                                   : No

Text #25
ID                                       : 28
Format                                   : UTF-8
Codec ID                                 : S_TEXT/UTF8
Codec ID/Info                            : UTF-8 Plain Text
Duration                                 : 16 min 20 s
Bit rate                                 : 51 b/s
Frame rate                               : 0.204 FPS
Count of elements                        : 200
Stream size                              : 6.14 KiB (0%)
Language                                 : Norwegian Bokmal
Default                                  : No
Forced                                   : No

Text #26
ID                                       : 29
Format                                   : UTF-8
Codec ID                                 : S_TEXT/UTF8
Codec ID/Info                            : UTF-8 Plain Text
Duration                                 : 16 min 20 s
Bit rate                                 : 46 b/s
Frame rate                               : 0.204 FPS
Count of elements                        : 200
Stream size                              : 5.57 KiB (0%)
Language                                 : Dutch
Default                                  : No
Forced                                   : No

Text #27
ID                                       : 30
Format                                   : UTF-8
Codec ID                                 : S_TEXT/UTF8
Codec ID/Info                            : UTF-8 Plain Text
Duration                                 : 16 min 20 s
Bit rate                                 : 46 b/s
Frame rate                               : 0.204 FPS
Count of elements                        : 200
Stream size                              : 5.56 KiB (0%)
Language                                 : Polish
Default                                  : No
Forced                                   : No

Text #28
ID                                       : 31
Format                                   : UTF-8
Codec ID                                 : S_TEXT/UTF8
Codec ID/Info                            : UTF-8 Plain Text
Duration                                 : 16 min 20 s
Bit rate                                 : 46 b/s
Frame rate                               : 0.202 FPS
Count of elements                        : 198
Stream size                              : 5.60 KiB (0%)
Title                                    : Brazilian
Language                                 : Portuguese (BR)
Default                                  : No
Forced                                   : No

Text #29
ID                                       : 32
Format                                   : UTF-8
Codec ID                                 : S_TEXT/UTF8
Codec ID/Info                            : UTF-8 Plain Text
Duration                                 : 16 min 20 s
Bit rate                                 : 53 b/s
Frame rate                               : 0.204 FPS
Count of elements                        : 200
Stream size                              : 6.37 KiB (0%)
Title                                    : European
Language                                 : Portuguese (PT)
Default                                  : No
Forced                                   : No

Text #30
ID                                       : 33
Format                                   : UTF-8
Codec ID                                 : S_TEXT/UTF8
Codec ID/Info                            : UTF-8 Plain Text
Duration                                 : 16 min 20 s
Bit rate                                 : 52 b/s
Frame rate                               : 0.202 FPS
Count of elements                        : 198
Stream size                              : 6.32 KiB (0%)
Language                                 : Romanian
Default                                  : No
Forced                                   : No

Text #31
ID                                       : 34
Format                                   : UTF-8
Codec ID                                 : S_TEXT/UTF8
Codec ID/Info                            : UTF-8 Plain Text
Duration                                 : 16 min 20 s
Bit rate                                 : 84 b/s
Frame rate                               : 0.204 FPS
Count of elements                        : 200
Stream size                              : 10.1 KiB (0%)
Language                                 : Russian
Default                                  : No
Forced                                   : No

Text #32
ID                                       : 35
Format                                   : UTF-8
Codec ID                                 : S_TEXT/UTF8
Codec ID/Info                            : UTF-8 Plain Text
Duration                                 : 16 min 20 s
Bit rate                                 : 51 b/s
Frame rate                               : 0.204 FPS
Count of elements                        : 200
Stream size                              : 6.11 KiB (0%)
Language                                 : Swedish
Default                                  : No
Forced                                   : No

Text #33
ID                                       : 36
Format                                   : UTF-8
Codec ID                                 : S_TEXT/UTF8
Codec ID/Info                            : UTF-8 Plain Text
Duration                                 : 16 min 20 s
Bit rate                                 : 118 b/s
Frame rate                               : 0.203 FPS
Count of elements                        : 199
Stream size                              : 14.1 KiB (0%)
Language                                 : Thai
Default                                  : No
Forced                                   : No

Text #34
ID                                       : 37
Format                                   : UTF-8
Codec ID                                 : S_TEXT/UTF8
Codec ID/Info                            : UTF-8 Plain Text
Duration                                 : 16 min 20 s
Bit rate                                 : 53 b/s
Frame rate                               : 0.204 FPS
Count of elements                        : 200
Stream size                              : 6.40 KiB (0%)
Language                                 : Turkish
Default                                  : No
Forced                                   : No

Text #35
ID                                       : 38
Format                                   : UTF-8
Codec ID                                 : S_TEXT/UTF8
Codec ID/Info                            : UTF-8 Plain Text
Duration                                 : 16 min 20 s
Bit rate                                 : 86 b/s
Frame rate                               : 0.204 FPS
Count of elements                        : 200
Stream size                              : 10.3 KiB (0%)
Language                                 : Ukrainian
Default                                  : No
Forced                                   : No

Text #36
ID                                       : 39
Format                                   : UTF-8
Codec ID                                 : S_TEXT/UTF8
Codec ID/Info                            : UTF-8 Plain Text
Duration                                 : 16 min 20 s
Bit rate                                 : 65 b/s
Frame rate                               : 0.201 FPS
Count of elements                        : 197
Stream size                              : 7.84 KiB (0%)
Language                                 : Vietnamese
Default                                  : No
Forced                                   : No

Text #37
ID                                       : 40
Format                                   : UTF-8
Codec ID                                 : S_TEXT/UTF8
Codec ID/Info                            : UTF-8 Plain Text
Duration                                 : 14 min 9 s
Bit rate                                 : 54 b/s
Frame rate                               : 0.235 FPS
Count of elements                        : 200
Stream size                              : 5.63 KiB (0%)
Title                                    : Simplified
Language                                 : Chinese (Simplified)
Default                                  : No
Forced                                   : No

Text #38
ID                                       : 41
Format                                   : UTF-8
Codec ID                                 : S_TEXT/UTF8
Codec ID/Info                            : UTF-8 Plain Text
Duration                                 : 14 min 9 s
Bit rate                                 : 55 b/s
Frame rate                               : 0.235 FPS
Count of elements                        : 200
Stream size                              : 5.71 KiB (0%)
Title                                    : Traditional
Language                                 : Chinese (Traditional)
Default                                  : No
Forced                                   : No

Menu
00:00:00.000                             : en:Scene 1
00:14:29.450                             : en:Credits

Other Files in this Torrent
Pokemon.Concierge.S01E01.Im.Haru.the.New.Concierge.1080p.NF.WEB-DL.DDP5.1.H.264-VARYG.mkv
beta
Anime DDL+NZB mirror
Current Time: 13/07/2024 18:40



About/FAQs

Discord