File Size253.7 MB (265,979,970 bytes)
DownloadClickNUpload | DailyUploads | DownloadGG | GoFile | KrakenFiles | MdiaLoad | MultiUp
  • BdUpload
  • DownAce
  • Fichier
  • FileCloud
  • Filerio
  • FilesCdn
  • IndiShare
  • Kbagi
  • Turbobit
  • UpToBox
  • Uppit
| Uppit
HashesCRC32: 1A97ED23, MD5: C85C88B2DF1B4651FD317433D2204EDF, SHA1: 4552A2A967154634910455CA50D4AB449DBA7B57, SHA256: 8D0F27AB2AA5C5415F294F003AC2E2B6D82D9A9EE76CC79686578F433FD4F146, ED2K: 8EAC43D8E2A1B1F2EFE41C0AC11224EE
Screenshots
screenshotscreenshotscreenshotscreenshotscreenshot
SubtitlesAll Attachments | eng [SRT], eng [SRT], SDH [eng, SRT], SDH [jpn, SRT], ara [SRT], cze [SRT], dan [SRT], ger [SRT], SDH [ger, SRT], gre [SRT], Latin American [spa, SRT], Latin American (SDH) [spa, SRT], European [spa, SRT], fin [SRT], fil [SRT], fre [SRT], SDH [fre, SRT], heb [SRT], hrv [SRT], hun [SRT], ind [SRT], ita [SRT], kor [SRT], may [SRT], nob [SRT], dut [SRT], pol [SRT], Brazilian [por, SRT], European [por, SRT], rum [SRT], rus [SRT], swe [SRT], tha [SRT], tur [SRT], ukr [SRT], vie [SRT], Simplified [chi, SRT], Traditional [chi, SRT]
Additional Info
General
Unique ID                                : 231516518626695870872615947340093531488 (0xAE2C75A751CEBB64233888E14DFF2560)
Complete name                            : Pokemon Concierge - S01E03 - I Hope I Can Evolve Too....mkv
Format                                   : Matroska
Format version                           : Version 4
File size                                : 254 MiB
Duration                                 : 14 min 50 s
Overall bit rate                         : 2 388 kb/s
Frame rate                               : 24.000 FPS
Writing application                      : Lavf60.14.100
Writing library                          : Lavf60.14.100
ErrorDetectionType                       : Per level 1

Video
ID                                       : 1
Format                                   : HEVC
Format/Info                              : High Efficiency Video Coding
Format profile                           : Main 10@L4@Main
Codec ID                                 : V_MPEGH/ISO/HEVC
Duration                                 : 14 min 50 s
Bit rate                                 : 6 158 kb/s
Width                                    : 1 920 pixels
Height                                   : 1 080 pixels
Display aspect ratio                     : 16:9
Frame rate mode                          : Constant
Frame rate                               : 24.000 FPS
Color space                              : YUV
Chroma subsampling                       : 4:2:0 (Type 0)
Bit depth                                : 10 bits
Bits/(Pixel*Frame)                       : 0.124
Stream size                              : 654 MiB
Writing library                          : x265 3.5+111-68be7da1a:[Windows][GCC 13.2.0][64 bit] 10bit
Encoding settings                        : cpuid=1111039 / frame-threads=4 / numa-pools=16 / wpp / no-pmode / no-pme / no-psnr / no-ssim / log-level=2 / input-csp=1 / input-res=1920x1080 / interlace=0 / total-frames=0 / level-idc=0 / high-tier=1 / uhd-bd=0 / ref=3 / no-allow-non-conformance / no-repeat-headers / annexb / no-aud / no-eob / no-eos / no-hrd / info / hash=0 / temporal-layers=0 / open-gop / min-keyint=24 / keyint=250 / gop-lookahead=0 / bframes=4 / b-adapt=2 / b-pyramid / bframe-bias=0 / rc-lookahead=20 / lookahead-slices=6 / scenecut=40 / no-hist-scenecut / radl=0 / no-splice / no-intra-refresh / ctu=64 / min-cu-size=8 / no-rect / no-amp / max-tu-size=32 / tu-inter-depth=1 / tu-intra-depth=1 / limit-tu=0 / rdoq-level=0 / dynamic-rd=0.00 / no-ssim-rd / signhide / no-tskip / nr-intra=0 / nr-inter=0 / no-constrained-intra / strong-intra-smoothing / max-merge=3 / limit-refs=1 / no-limit-modes / me=1 / subme=2 / merange=57 / temporal-mvp / no-frame-dup / no-hme / weightp / no-weightb / no-analyze-src-pics / deblock=0:0 / sao / no-sao-non-deblock / rd=3 / selective-sao=4 / early-skip / rskip / no-fast-intra / no-tskip-fast / no-cu-lossless / b-intra / no-splitrd-skip / rdpenalty=0 / psy-rd=2.00 / psy-rdoq=0.00 / no-rd-refine / no-lossless / cbqpoffs=0 / crqpoffs=0 / rc=crf / crf=25.5 / qcomp=0.60 / qpstep=4 / stats-write=0 / stats-read=0 / ipratio=1.40 / pbratio=1.30 / aq-mode=2 / aq-strength=1.00 / cutree / zone-count=0 / no-strict-cbr / qg-size=32 / no-rc-grain / qpmax=69 / qpmin=0 / no-const-vbv / sar=1 / overscan=0 / videoformat=5 / range=0 / colorprim=2 / transfer=2 / colormatrix=2 / chromaloc=1 / chromaloc-top=0 / chromaloc-bottom=0 / display-window=0 / cll=0,0 / min-luma=0 / max-luma=1023 / log2-max-poc-lsb=8 / vui-timing-info / vui-hrd-info / slices=1 / no-opt-qp-pps / no-opt-ref-list-length-pps / no-multi-pass-opt-rps / scenecut-bias=0.05 / no-opt-cu-delta-qp / no-aq-motion / no-hdr10 / no-hdr10-opt / no-dhdr10-opt / no-idr-recovery-sei / analysis-reuse-level=0 / analysis-save-reuse-level=0 / analysis-load-reuse-level=0 / scale-factor=0 / refine-intra=0 / refine-inter=0 / refine-mv=1 / refine-ctu-distortion=0 / no-limit-sao / ctu-info=0 / no-lowpass-dct / refine-analysis-type=0 / copy-pic=1 / max-ausize-factor=1.0 / no-dynamic-refine / no-single-sei / no-hevc-aq / no-svt / no-field / qp-adaptation-range=1.00 / scenecut-aware-qp=0conformance-window-offsets / right=0 / bottom=0 / decoder-max-rate=0 / no-vbv-live-multi-pass / no-mcstf / no-sbrc
Default                                  : Yes
Forced                                   : No
Color range                              : Limited

Audio #1
ID                                       : 2
Format                                   : AAC LC
Format/Info                              : Advanced Audio Codec Low Complexity
Codec ID                                 : A_AAC-2
Duration                                 : 14 min 50 s
Bit rate                                 : 640 kb/s
Channel(s)                               : 6 channels
Channel layout                           : C L R Ls Rs LFE
Sampling rate                            : 48.0 kHz
Frame rate                               : 46.875 FPS (1024 SPF)
Compression mode                         : Lossy
Stream size                              : 68.0 MiB (27%)
Writing library                          : Lavc60.28.100 aac
Language                                 : Japanese
Default                                  : Yes
Forced                                   : No

Audio #2
ID                                       : 3
Format                                   : AAC LC
Format/Info                              : Advanced Audio Codec Low Complexity
Codec ID                                 : A_AAC-2
Duration                                 : 14 min 50 s
Bit rate                                 : 640 kb/s
Channel(s)                               : 6 channels
Channel layout                           : C L R Ls Rs LFE
Sampling rate                            : 48.0 kHz
Frame rate                               : 46.875 FPS (1024 SPF)
Compression mode                         : Lossy
Stream size                              : 68.0 MiB (27%)
Writing library                          : Lavc60.28.100 aac
Language                                 : English
Default                                  : No
Forced                                   : No

Text #1
ID                                       : 4
Format                                   : UTF-8
Codec ID                                 : S_TEXT/UTF8
Codec ID/Info                            : UTF-8 Plain Text
Duration                                 : 10 min 4 s
Bit rate                                 : 52 b/s
Frame rate                               : 0.184 FPS
Count of elements                        : 111
Stream size                              : 3.67 KiB (0%)
Language                                 : English
Default                                  : Yes
Forced                                   : No

Text #2
ID                                       : 5
Format                                   : UTF-8
Codec ID                                 : S_TEXT/UTF8
Codec ID/Info                            : UTF-8 Plain Text
Duration                                 : 10 min 4 s
Bit rate                                 : 56 b/s
Frame rate                               : 0.210 FPS
Count of elements                        : 127
Stream size                              : 3.96 KiB (0%)
Language                                 : English
Default                                  : No
Forced                                   : No

Text #3
ID                                       : 6
Format                                   : UTF-8
Codec ID                                 : S_TEXT/UTF8
Codec ID/Info                            : UTF-8 Plain Text
Duration                                 : 11 min 52 s
Bit rate                                 : 71 b/s
Frame rate                               : 0.292 FPS
Count of elements                        : 208
Stream size                              : 6.14 KiB (0%)
Title                                    : SDH
Language                                 : English
Default                                  : No
Forced                                   : No

Text #4
ID                                       : 7
Format                                   : UTF-8
Codec ID                                 : S_TEXT/UTF8
Codec ID/Info                            : UTF-8 Plain Text
Duration                                 : 11 min 56 s
Bit rate                                 : 82 b/s
Frame rate                               : 0.292 FPS
Count of elements                        : 209
Stream size                              : 7.10 KiB (0%)
Title                                    : SDH
Language                                 : Japanese
Default                                  : No
Forced                                   : No

Text #5
ID                                       : 8
Format                                   : UTF-8
Codec ID                                 : S_TEXT/UTF8
Codec ID/Info                            : UTF-8 Plain Text
Duration                                 : 12 min 14 s
Bit rate                                 : 67 b/s
Frame rate                               : 0.155 FPS
Count of elements                        : 114
Stream size                              : 5.73 KiB (0%)
Language                                 : Arabic
Default                                  : No
Forced                                   : No

Text #6
ID                                       : 9
Format                                   : UTF-8
Codec ID                                 : S_TEXT/UTF8
Codec ID/Info                            : UTF-8 Plain Text
Duration                                 : 12 min 14 s
Bit rate                                 : 38 b/s
Frame rate                               : 0.155 FPS
Count of elements                        : 114
Stream size                              : 3.31 KiB (0%)
Language                                 : Czech
Default                                  : No
Forced                                   : No

Text #7
ID                                       : 10
Format                                   : UTF-8
Codec ID                                 : S_TEXT/UTF8
Codec ID/Info                            : UTF-8 Plain Text
Duration                                 : 11 min 58 s
Bit rate                                 : 42 b/s
Frame rate                               : 0.156 FPS
Count of elements                        : 112
Stream size                              : 3.56 KiB (0%)
Language                                 : Danish
Default                                  : No
Forced                                   : No

Text #8
ID                                       : 11
Format                                   : UTF-8
Codec ID                                 : S_TEXT/UTF8
Codec ID/Info                            : UTF-8 Plain Text
Duration                                 : 12 min 14 s
Bit rate                                 : 44 b/s
Frame rate                               : 0.155 FPS
Count of elements                        : 114
Stream size                              : 3.77 KiB (0%)
Language                                 : German
Default                                  : No
Forced                                   : No

Text #9
ID                                       : 12
Format                                   : UTF-8
Codec ID                                 : S_TEXT/UTF8
Codec ID/Info                            : UTF-8 Plain Text
Duration                                 : 10 min 11 s
Bit rate                                 : 84 b/s
Frame rate                               : 0.317 FPS
Count of elements                        : 194
Stream size                              : 6.23 KiB (0%)
Title                                    : SDH
Language                                 : German
Default                                  : No
Forced                                   : No

Text #10
ID                                       : 13
Format                                   : UTF-8
Codec ID                                 : S_TEXT/UTF8
Codec ID/Info                            : UTF-8 Plain Text
Duration                                 : 12 min 14 s
Bit rate                                 : 71 b/s
Frame rate                               : 0.155 FPS
Count of elements                        : 114
Stream size                              : 6.06 KiB (0%)
Language                                 : Greek
Default                                  : No
Forced                                   : No

Text #11
ID                                       : 14
Format                                   : UTF-8
Codec ID                                 : S_TEXT/UTF8
Codec ID/Info                            : UTF-8 Plain Text
Duration                                 : 12 min 14 s
Bit rate                                 : 42 b/s
Frame rate                               : 0.154 FPS
Count of elements                        : 113
Stream size                              : 3.67 KiB (0%)
Title                                    : Latin American
Language                                 : Spanish
Default                                  : No
Forced                                   : No

Text #12
ID                                       : 15
Format                                   : UTF-8
Codec ID                                 : S_TEXT/UTF8
Codec ID/Info                            : UTF-8 Plain Text
Duration                                 : 12 min 14 s
Bit rate                                 : 57 b/s
Frame rate                               : 0.241 FPS
Count of elements                        : 177
Stream size                              : 5.06 KiB (0%)
Title                                    : Latin American (SDH)
Language                                 : Spanish
Default                                  : No
Forced                                   : No

Text #13
ID                                       : 16
Format                                   : UTF-8
Codec ID                                 : S_TEXT/UTF8
Codec ID/Info                            : UTF-8 Plain Text
Duration                                 : 12 min 14 s
Bit rate                                 : 40 b/s
Frame rate                               : 0.155 FPS
Count of elements                        : 114
Stream size                              : 3.47 KiB (0%)
Title                                    : European
Language                                 : Spanish
Default                                  : No
Forced                                   : No

Text #14
ID                                       : 17
Format                                   : UTF-8
Codec ID                                 : S_TEXT/UTF8
Codec ID/Info                            : UTF-8 Plain Text
Duration                                 : 12 min 14 s
Bit rate                                 : 41 b/s
Frame rate                               : 0.155 FPS
Count of elements                        : 114
Stream size                              : 3.52 KiB (0%)
Language                                 : Finnish
Default                                  : No
Forced                                   : No

Text #15
ID                                       : 18
Format                                   : UTF-8
Codec ID                                 : S_TEXT/UTF8
Codec ID/Info                            : UTF-8 Plain Text
Duration                                 : 12 min 14 s
Bit rate                                 : 43 b/s
Frame rate                               : 0.152 FPS
Count of elements                        : 112
Stream size                              : 3.72 KiB (0%)
Language                                 : Filipino
Default                                  : No
Forced                                   : No

Text #16
ID                                       : 19
Format                                   : UTF-8
Codec ID                                 : S_TEXT/UTF8
Codec ID/Info                            : UTF-8 Plain Text
Duration                                 : 12 min 14 s
Bit rate                                 : 43 b/s
Frame rate                               : 0.155 FPS
Count of elements                        : 114
Stream size                              : 3.71 KiB (0%)
Language                                 : French
Default                                  : No
Forced                                   : No

Text #17
ID                                       : 20
Format                                   : UTF-8
Codec ID                                 : S_TEXT/UTF8
Codec ID/Info                            : UTF-8 Plain Text
Duration                                 : 12 min 14 s
Bit rate                                 : 80 b/s
Frame rate                               : 0.319 FPS
Count of elements                        : 234
Stream size                              : 7.16 KiB (0%)
Title                                    : SDH
Language                                 : French
Default                                  : No
Forced                                   : No

Text #18
ID                                       : 21
Format                                   : UTF-8
Codec ID                                 : S_TEXT/UTF8
Codec ID/Info                            : UTF-8 Plain Text
Duration                                 : 12 min 14 s
Bit rate                                 : 58 b/s
Frame rate                               : 0.155 FPS
Count of elements                        : 114
Stream size                              : 4.97 KiB (0%)
Language                                 : Hebrew
Default                                  : No
Forced                                   : No

Text #19
ID                                       : 22
Format                                   : UTF-8
Codec ID                                 : S_TEXT/UTF8
Codec ID/Info                            : UTF-8 Plain Text
Duration                                 : 12 min 14 s
Bit rate                                 : 34 b/s
Frame rate                               : 0.152 FPS
Count of elements                        : 112
Stream size                              : 2.96 KiB (0%)
Language                                 : Croatian
Default                                  : No
Forced                                   : No

Text #20
ID                                       : 23
Format                                   : UTF-8
Codec ID                                 : S_TEXT/UTF8
Codec ID/Info                            : UTF-8 Plain Text
Duration                                 : 12 min 14 s
Bit rate                                 : 41 b/s
Frame rate                               : 0.152 FPS
Count of elements                        : 112
Stream size                              : 3.52 KiB (0%)
Language                                 : Hungarian
Default                                  : No
Forced                                   : No

Text #21
ID                                       : 24
Format                                   : UTF-8
Codec ID                                 : S_TEXT/UTF8
Codec ID/Info                            : UTF-8 Plain Text
Duration                                 : 12 min 14 s
Bit rate                                 : 42 b/s
Frame rate                               : 0.154 FPS
Count of elements                        : 113
Stream size                              : 3.60 KiB (0%)
Language                                 : Indonesian
Default                                  : No
Forced                                   : No

Text #22
ID                                       : 25
Format                                   : UTF-8
Codec ID                                 : S_TEXT/UTF8
Codec ID/Info                            : UTF-8 Plain Text
Duration                                 : 12 min 14 s
Bit rate                                 : 37 b/s
Frame rate                               : 0.155 FPS
Count of elements                        : 114
Stream size                              : 3.18 KiB (0%)
Language                                 : Italian
Default                                  : No
Forced                                   : No

Text #23
ID                                       : 26
Format                                   : UTF-8
Codec ID                                 : S_TEXT/UTF8
Codec ID/Info                            : UTF-8 Plain Text
Duration                                 : 10 min 4 s
Bit rate                                 : 52 b/s
Frame rate                               : 0.187 FPS
Count of elements                        : 113
Stream size                              : 3.67 KiB (0%)
Language                                 : Korean
Default                                  : No
Forced                                   : No

Text #24
ID                                       : 27
Format                                   : UTF-8
Codec ID                                 : S_TEXT/UTF8
Codec ID/Info                            : UTF-8 Plain Text
Duration                                 : 12 min 14 s
Bit rate                                 : 41 b/s
Frame rate                               : 0.152 FPS
Count of elements                        : 112
Stream size                              : 3.57 KiB (0%)
Language                                 : Malay
Default                                  : No
Forced                                   : No

Text #25
ID                                       : 28
Format                                   : UTF-8
Codec ID                                 : S_TEXT/UTF8
Codec ID/Info                            : UTF-8 Plain Text
Duration                                 : 12 min 14 s
Bit rate                                 : 40 b/s
Frame rate                               : 0.155 FPS
Count of elements                        : 114
Stream size                              : 3.47 KiB (0%)
Language                                 : Norwegian Bokmal
Default                                  : No
Forced                                   : No

Text #26
ID                                       : 29
Format                                   : UTF-8
Codec ID                                 : S_TEXT/UTF8
Codec ID/Info                            : UTF-8 Plain Text
Duration                                 : 12 min 14 s
Bit rate                                 : 38 b/s
Frame rate                               : 0.155 FPS
Count of elements                        : 114
Stream size                              : 3.28 KiB (0%)
Language                                 : Dutch
Default                                  : No
Forced                                   : No

Text #27
ID                                       : 30
Format                                   : UTF-8
Codec ID                                 : S_TEXT/UTF8
Codec ID/Info                            : UTF-8 Plain Text
Duration                                 : 12 min 14 s
Bit rate                                 : 38 b/s
Frame rate                               : 0.155 FPS
Count of elements                        : 114
Stream size                              : 3.29 KiB (0%)
Language                                 : Polish
Default                                  : No
Forced                                   : No

Text #28
ID                                       : 31
Format                                   : UTF-8
Codec ID                                 : S_TEXT/UTF8
Codec ID/Info                            : UTF-8 Plain Text
Duration                                 : 12 min 14 s
Bit rate                                 : 38 b/s
Frame rate                               : 0.155 FPS
Count of elements                        : 114
Stream size                              : 3.25 KiB (0%)
Title                                    : Brazilian
Language                                 : Portuguese
Default                                  : No
Forced                                   : No

Text #29
ID                                       : 32
Format                                   : UTF-8
Codec ID                                 : S_TEXT/UTF8
Codec ID/Info                            : UTF-8 Plain Text
Duration                                 : 12 min 14 s
Bit rate                                 : 41 b/s
Frame rate                               : 0.155 FPS
Count of elements                        : 114
Stream size                              : 3.58 KiB (0%)
Title                                    : European
Language                                 : Portuguese
Default                                  : No
Forced                                   : No

Text #30
ID                                       : 33
Format                                   : UTF-8
Codec ID                                 : S_TEXT/UTF8
Codec ID/Info                            : UTF-8 Plain Text
Duration                                 : 12 min 14 s
Bit rate                                 : 41 b/s
Frame rate                               : 0.152 FPS
Count of elements                        : 112
Stream size                              : 3.58 KiB (0%)
Language                                 : Romanian
Default                                  : No
Forced                                   : No

Text #31
ID                                       : 34
Format                                   : UTF-8
Codec ID                                 : S_TEXT/UTF8
Codec ID/Info                            : UTF-8 Plain Text
Duration                                 : 12 min 14 s
Bit rate                                 : 66 b/s
Frame rate                               : 0.155 FPS
Count of elements                        : 114
Stream size                              : 5.72 KiB (0%)
Language                                 : Russian
Default                                  : No
Forced                                   : No

Text #32
ID                                       : 35
Format                                   : UTF-8
Codec ID                                 : S_TEXT/UTF8
Codec ID/Info                            : UTF-8 Plain Text
Duration                                 : 12 min 14 s
Bit rate                                 : 41 b/s
Frame rate                               : 0.155 FPS
Count of elements                        : 114
Stream size                              : 3.57 KiB (0%)
Language                                 : Swedish
Default                                  : No
Forced                                   : No

Text #33
ID                                       : 36
Format                                   : UTF-8
Codec ID                                 : S_TEXT/UTF8
Codec ID/Info                            : UTF-8 Plain Text
Duration                                 : 12 min 14 s
Bit rate                                 : 92 b/s
Frame rate                               : 0.155 FPS
Count of elements                        : 114
Stream size                              : 7.94 KiB (0%)
Language                                 : Thai
Default                                  : No
Forced                                   : No

Text #34
ID                                       : 37
Format                                   : UTF-8
Codec ID                                 : S_TEXT/UTF8
Codec ID/Info                            : UTF-8 Plain Text
Duration                                 : 12 min 14 s
Bit rate                                 : 41 b/s
Frame rate                               : 0.155 FPS
Count of elements                        : 114
Stream size                              : 3.58 KiB (0%)
Language                                 : Turkish
Default                                  : No
Forced                                   : No

Text #35
ID                                       : 38
Format                                   : UTF-8
Codec ID                                 : S_TEXT/UTF8
Codec ID/Info                            : UTF-8 Plain Text
Duration                                 : 12 min 14 s
Bit rate                                 : 72 b/s
Frame rate                               : 0.155 FPS
Count of elements                        : 114
Stream size                              : 6.18 KiB (0%)
Language                                 : Ukrainian
Default                                  : No
Forced                                   : No

Text #36
ID                                       : 39
Format                                   : UTF-8
Codec ID                                 : S_TEXT/UTF8
Codec ID/Info                            : UTF-8 Plain Text
Duration                                 : 12 min 14 s
Bit rate                                 : 49 b/s
Frame rate                               : 0.150 FPS
Count of elements                        : 110
Stream size                              : 4.27 KiB (0%)
Language                                 : Vietnamese
Default                                  : No
Forced                                   : No

Text #37
ID                                       : 40
Format                                   : UTF-8
Codec ID                                 : S_TEXT/UTF8
Codec ID/Info                            : UTF-8 Plain Text
Duration                                 : 10 min 4 s
Bit rate                                 : 49 b/s
Frame rate                               : 0.187 FPS
Count of elements                        : 113
Stream size                              : 3.41 KiB (0%)
Title                                    : Simplified
Language                                 : Chinese
Default                                  : No
Forced                                   : No

Text #38
ID                                       : 41
Format                                   : UTF-8
Codec ID                                 : S_TEXT/UTF8
Codec ID/Info                            : UTF-8 Plain Text
Duration                                 : 10 min 4 s
Bit rate                                 : 50 b/s
Frame rate                               : 0.187 FPS
Count of elements                        : 113
Stream size                              : 3.50 KiB (0%)
Title                                    : Traditional
Language                                 : Chinese
Default                                  : No
Forced                                   : No

Menu
00:00:00.000                             : Scene 1
00:10:09.450                             : Credits

Other Files in this Torrent
Pokemon Concierge - S01E03 - I Hope I Can Evolve Too....mkv
beta
Anime DDL+NZB mirror
Current Time: 13/07/2024 00:56



About/FAQs

Discord