File Size246.7 MB (258,697,466 bytes)
DownloadClickNUpload | DailyUploads | DownloadGG | GoFile | KrakenFiles | MdiaLoad | MultiUp
  • BdUpload
  • DownAce
  • Fichier
  • FileCloud
  • Filerio
  • FilesCdn
  • IndiShare
  • Kbagi
  • Turbobit
  • UpToBox
  • Uppit
| Uppit
HashesCRC32: 176A2D1E, MD5: 9350E2829980E307082D9847C2DC008E, SHA1: 5AD8C40BC8535BFB60A4CEB9259E548D5EEB8A74, SHA256: 6D0E4B69449DFA6A5E4CABEB71CD85E541979B7D33E01E790E6B51F6B6BBCB08, ED2K: 31583B5A07AB13E2F3D107943F54C3C2
Screenshots
screenshotscreenshotscreenshotscreenshotscreenshot
SubtitlesAll Attachments | eng [SRT], eng [SRT], SDH [eng, SRT], SDH [jpn, SRT], ara [SRT], cze [SRT], dan [SRT], ger [SRT], SDH [ger, SRT], gre [SRT], Latin American [spa, SRT], Latin American (SDH) [spa, SRT], European [spa, SRT], fin [SRT], fil [SRT], fre [SRT], SDH [fre, SRT], heb [SRT], hrv [SRT], hun [SRT], ind [SRT], ita [SRT], kor [SRT], may [SRT], nob [SRT], dut [SRT], pol [SRT], Brazilian [por, SRT], European [por, SRT], rum [SRT], rus [SRT], swe [SRT], tha [SRT], tur [SRT], ukr [SRT], vie [SRT], Simplified [chi, SRT], Traditional [chi, SRT]
Additional Info
General
Unique ID                                : 200844664961205494259983148563882206926 (0x971946835C999338054C03F9B78E66CE)
Complete name                            : Pokemon Concierge - S01E02 - What's on Your Mind, Psyduck.mkv
Format                                   : Matroska
Format version                           : Version 4
File size                                : 247 MiB
Duration                                 : 16 min 47 s
Overall bit rate                         : 2 055 kb/s
Frame rate                               : 24.000 FPS
Writing application                      : Lavf60.14.100
Writing library                          : Lavf60.14.100
ErrorDetectionType                       : Per level 1

Video
ID                                       : 1
Format                                   : HEVC
Format/Info                              : High Efficiency Video Coding
Format profile                           : Main 10@L4@Main
Codec ID                                 : V_MPEGH/ISO/HEVC
Duration                                 : 16 min 46 s
Bit rate                                 : 4 207 kb/s
Width                                    : 1 920 pixels
Height                                   : 1 080 pixels
Display aspect ratio                     : 16:9
Frame rate mode                          : Constant
Frame rate                               : 24.000 FPS
Color space                              : YUV
Chroma subsampling                       : 4:2:0 (Type 0)
Bit depth                                : 10 bits
Bits/(Pixel*Frame)                       : 0.085
Stream size                              : 505 MiB
Writing library                          : x265 3.5+111-68be7da1a:[Windows][GCC 13.2.0][64 bit] 10bit
Encoding settings                        : cpuid=1111039 / frame-threads=4 / numa-pools=16 / wpp / no-pmode / no-pme / no-psnr / no-ssim / log-level=2 / input-csp=1 / input-res=1920x1080 / interlace=0 / total-frames=0 / level-idc=0 / high-tier=1 / uhd-bd=0 / ref=3 / no-allow-non-conformance / no-repeat-headers / annexb / no-aud / no-eob / no-eos / no-hrd / info / hash=0 / temporal-layers=0 / open-gop / min-keyint=24 / keyint=250 / gop-lookahead=0 / bframes=4 / b-adapt=2 / b-pyramid / bframe-bias=0 / rc-lookahead=20 / lookahead-slices=6 / scenecut=40 / no-hist-scenecut / radl=0 / no-splice / no-intra-refresh / ctu=64 / min-cu-size=8 / no-rect / no-amp / max-tu-size=32 / tu-inter-depth=1 / tu-intra-depth=1 / limit-tu=0 / rdoq-level=0 / dynamic-rd=0.00 / no-ssim-rd / signhide / no-tskip / nr-intra=0 / nr-inter=0 / no-constrained-intra / strong-intra-smoothing / max-merge=3 / limit-refs=1 / no-limit-modes / me=1 / subme=2 / merange=57 / temporal-mvp / no-frame-dup / no-hme / weightp / no-weightb / no-analyze-src-pics / deblock=0:0 / sao / no-sao-non-deblock / rd=3 / selective-sao=4 / early-skip / rskip / no-fast-intra / no-tskip-fast / no-cu-lossless / b-intra / no-splitrd-skip / rdpenalty=0 / psy-rd=2.00 / psy-rdoq=0.00 / no-rd-refine / no-lossless / cbqpoffs=0 / crqpoffs=0 / rc=crf / crf=25.5 / qcomp=0.60 / qpstep=4 / stats-write=0 / stats-read=0 / ipratio=1.40 / pbratio=1.30 / aq-mode=2 / aq-strength=1.00 / cutree / zone-count=0 / no-strict-cbr / qg-size=32 / no-rc-grain / qpmax=69 / qpmin=0 / no-const-vbv / sar=1 / overscan=0 / videoformat=5 / range=0 / colorprim=2 / transfer=2 / colormatrix=2 / chromaloc=1 / chromaloc-top=0 / chromaloc-bottom=0 / display-window=0 / cll=0,0 / min-luma=0 / max-luma=1023 / log2-max-poc-lsb=8 / vui-timing-info / vui-hrd-info / slices=1 / no-opt-qp-pps / no-opt-ref-list-length-pps / no-multi-pass-opt-rps / scenecut-bias=0.05 / no-opt-cu-delta-qp / no-aq-motion / no-hdr10 / no-hdr10-opt / no-dhdr10-opt / no-idr-recovery-sei / analysis-reuse-level=0 / analysis-save-reuse-level=0 / analysis-load-reuse-level=0 / scale-factor=0 / refine-intra=0 / refine-inter=0 / refine-mv=1 / refine-ctu-distortion=0 / no-limit-sao / ctu-info=0 / no-lowpass-dct / refine-analysis-type=0 / copy-pic=1 / max-ausize-factor=1.0 / no-dynamic-refine / no-single-sei / no-hevc-aq / no-svt / no-field / qp-adaptation-range=1.00 / scenecut-aware-qp=0conformance-window-offsets / right=0 / bottom=0 / decoder-max-rate=0 / no-vbv-live-multi-pass / no-mcstf / no-sbrc
Default                                  : Yes
Forced                                   : No
Color range                              : Limited

Audio #1
ID                                       : 2
Format                                   : AAC LC
Format/Info                              : Advanced Audio Codec Low Complexity
Codec ID                                 : A_AAC-2
Duration                                 : 16 min 47 s
Bit rate                                 : 640 kb/s
Channel(s)                               : 6 channels
Channel layout                           : C L R Ls Rs LFE
Sampling rate                            : 48.0 kHz
Frame rate                               : 46.875 FPS (1024 SPF)
Compression mode                         : Lossy
Stream size                              : 76.8 MiB (31%)
Writing library                          : Lavc60.28.100 aac
Language                                 : Japanese
Default                                  : Yes
Forced                                   : No

Audio #2
ID                                       : 3
Format                                   : AAC LC
Format/Info                              : Advanced Audio Codec Low Complexity
Codec ID                                 : A_AAC-2
Duration                                 : 16 min 47 s
Bit rate                                 : 640 kb/s
Channel(s)                               : 6 channels
Channel layout                           : C L R Ls Rs LFE
Sampling rate                            : 48.0 kHz
Frame rate                               : 46.875 FPS (1024 SPF)
Compression mode                         : Lossy
Stream size                              : 76.8 MiB (31%)
Writing library                          : Lavc60.28.100 aac
Language                                 : English
Default                                  : No
Forced                                   : No

Text #1
ID                                       : 4
Format                                   : UTF-8
Codec ID                                 : S_TEXT/UTF8
Codec ID/Info                            : UTF-8 Plain Text
Duration                                 : 11 min 38 s
Bit rate                                 : 59 b/s
Frame rate                               : 0.209 FPS
Count of elements                        : 146
Stream size                              : 4.98 KiB (0%)
Language                                 : English
Default                                  : Yes
Forced                                   : No

Text #2
ID                                       : 5
Format                                   : UTF-8
Codec ID                                 : S_TEXT/UTF8
Codec ID/Info                            : UTF-8 Plain Text
Duration                                 : 11 min 38 s
Bit rate                                 : 62 b/s
Frame rate                               : 0.241 FPS
Count of elements                        : 168
Stream size                              : 5.23 KiB (0%)
Language                                 : English
Default                                  : No
Forced                                   : No

Text #3
ID                                       : 6
Format                                   : UTF-8
Codec ID                                 : S_TEXT/UTF8
Codec ID/Info                            : UTF-8 Plain Text
Duration                                 : 13 min 27 s
Bit rate                                 : 72 b/s
Frame rate                               : 0.297 FPS
Count of elements                        : 240
Stream size                              : 7.13 KiB (0%)
Title                                    : SDH
Language                                 : English
Default                                  : No
Forced                                   : No

Text #4
ID                                       : 7
Format                                   : UTF-8
Codec ID                                 : S_TEXT/UTF8
Codec ID/Info                            : UTF-8 Plain Text
Duration                                 : 13 min 29 s
Bit rate                                 : 83 b/s
Frame rate                               : 0.264 FPS
Count of elements                        : 214
Stream size                              : 8.19 KiB (0%)
Title                                    : SDH
Language                                 : Japanese
Default                                  : No
Forced                                   : No

Text #5
ID                                       : 8
Format                                   : UTF-8
Codec ID                                 : S_TEXT/UTF8
Codec ID/Info                            : UTF-8 Plain Text
Duration                                 : 13 min 48 s
Bit rate                                 : 74 b/s
Frame rate                               : 0.180 FPS
Count of elements                        : 149
Stream size                              : 7.40 KiB (0%)
Language                                 : Arabic
Default                                  : No
Forced                                   : No

Text #6
ID                                       : 9
Format                                   : UTF-8
Codec ID                                 : S_TEXT/UTF8
Codec ID/Info                            : UTF-8 Plain Text
Duration                                 : 13 min 48 s
Bit rate                                 : 44 b/s
Frame rate                               : 0.180 FPS
Count of elements                        : 149
Stream size                              : 4.46 KiB (0%)
Language                                 : Czech
Default                                  : No
Forced                                   : No

Text #7
ID                                       : 10
Format                                   : UTF-8
Codec ID                                 : S_TEXT/UTF8
Codec ID/Info                            : UTF-8 Plain Text
Duration                                 : 13 min 32 s
Bit rate                                 : 48 b/s
Frame rate                               : 0.181 FPS
Count of elements                        : 147
Stream size                              : 4.73 KiB (0%)
Language                                 : Danish
Default                                  : No
Forced                                   : No

Text #8
ID                                       : 11
Format                                   : UTF-8
Codec ID                                 : S_TEXT/UTF8
Codec ID/Info                            : UTF-8 Plain Text
Duration                                 : 13 min 48 s
Bit rate                                 : 51 b/s
Frame rate                               : 0.180 FPS
Count of elements                        : 149
Stream size                              : 5.15 KiB (0%)
Language                                 : German
Default                                  : No
Forced                                   : No

Text #9
ID                                       : 12
Format                                   : UTF-8
Codec ID                                 : S_TEXT/UTF8
Codec ID/Info                            : UTF-8 Plain Text
Duration                                 : 11 min 45 s
Bit rate                                 : 90 b/s
Frame rate                               : 0.320 FPS
Count of elements                        : 226
Stream size                              : 7.71 KiB (0%)
Title                                    : SDH
Language                                 : German
Default                                  : No
Forced                                   : No

Text #10
ID                                       : 13
Format                                   : UTF-8
Codec ID                                 : S_TEXT/UTF8
Codec ID/Info                            : UTF-8 Plain Text
Duration                                 : 13 min 48 s
Bit rate                                 : 80 b/s
Frame rate                               : 0.180 FPS
Count of elements                        : 149
Stream size                              : 7.99 KiB (0%)
Language                                 : Greek
Default                                  : No
Forced                                   : No

Text #11
ID                                       : 14
Format                                   : UTF-8
Codec ID                                 : S_TEXT/UTF8
Codec ID/Info                            : UTF-8 Plain Text
Duration                                 : 13 min 48 s
Bit rate                                 : 49 b/s
Frame rate                               : 0.180 FPS
Count of elements                        : 149
Stream size                              : 4.93 KiB (0%)
Title                                    : Latin American
Language                                 : Spanish
Default                                  : No
Forced                                   : No

Text #12
ID                                       : 15
Format                                   : UTF-8
Codec ID                                 : S_TEXT/UTF8
Codec ID/Info                            : UTF-8 Plain Text
Duration                                 : 13 min 48 s
Bit rate                                 : 60 b/s
Frame rate                               : 0.223 FPS
Count of elements                        : 185
Stream size                              : 6.05 KiB (0%)
Title                                    : Latin American (SDH)
Language                                 : Spanish
Default                                  : No
Forced                                   : No

Text #13
ID                                       : 16
Format                                   : UTF-8
Codec ID                                 : S_TEXT/UTF8
Codec ID/Info                            : UTF-8 Plain Text
Duration                                 : 13 min 48 s
Bit rate                                 : 45 b/s
Frame rate                               : 0.180 FPS
Count of elements                        : 149
Stream size                              : 4.56 KiB (0%)
Title                                    : European
Language                                 : Spanish
Default                                  : No
Forced                                   : No

Text #14
ID                                       : 17
Format                                   : UTF-8
Codec ID                                 : S_TEXT/UTF8
Codec ID/Info                            : UTF-8 Plain Text
Duration                                 : 13 min 48 s
Bit rate                                 : 43 b/s
Frame rate                               : 0.180 FPS
Count of elements                        : 149
Stream size                              : 4.34 KiB (0%)
Language                                 : Finnish
Default                                  : No
Forced                                   : No

Text #15
ID                                       : 18
Format                                   : UTF-8
Codec ID                                 : S_TEXT/UTF8
Codec ID/Info                            : UTF-8 Plain Text
Duration                                 : 13 min 48 s
Bit rate                                 : 50 b/s
Frame rate                               : 0.177 FPS
Count of elements                        : 147
Stream size                              : 5.05 KiB (0%)
Language                                 : Filipino
Default                                  : No
Forced                                   : No

Text #16
ID                                       : 19
Format                                   : UTF-8
Codec ID                                 : S_TEXT/UTF8
Codec ID/Info                            : UTF-8 Plain Text
Duration                                 : 13 min 48 s
Bit rate                                 : 49 b/s
Frame rate                               : 0.180 FPS
Count of elements                        : 149
Stream size                              : 4.90 KiB (0%)
Language                                 : French
Default                                  : No
Forced                                   : No

Text #17
ID                                       : 20
Format                                   : UTF-8
Codec ID                                 : S_TEXT/UTF8
Codec ID/Info                            : UTF-8 Plain Text
Duration                                 : 13 min 48 s
Bit rate                                 : 85 b/s
Frame rate                               : 0.334 FPS
Count of elements                        : 277
Stream size                              : 8.57 KiB (0%)
Title                                    : SDH
Language                                 : French
Default                                  : No
Forced                                   : No

Text #18
ID                                       : 21
Format                                   : UTF-8
Codec ID                                 : S_TEXT/UTF8
Codec ID/Info                            : UTF-8 Plain Text
Duration                                 : 13 min 48 s
Bit rate                                 : 66 b/s
Frame rate                               : 0.180 FPS
Count of elements                        : 149
Stream size                              : 6.64 KiB (0%)
Language                                 : Hebrew
Default                                  : No
Forced                                   : No

Text #19
ID                                       : 22
Format                                   : UTF-8
Codec ID                                 : S_TEXT/UTF8
Codec ID/Info                            : UTF-8 Plain Text
Duration                                 : 13 min 48 s
Bit rate                                 : 40 b/s
Frame rate                               : 0.177 FPS
Count of elements                        : 147
Stream size                              : 4.01 KiB (0%)
Language                                 : Croatian
Default                                  : No
Forced                                   : No

Text #20
ID                                       : 23
Format                                   : UTF-8
Codec ID                                 : S_TEXT/UTF8
Codec ID/Info                            : UTF-8 Plain Text
Duration                                 : 13 min 48 s
Bit rate                                 : 47 b/s
Frame rate                               : 0.177 FPS
Count of elements                        : 147
Stream size                              : 4.74 KiB (0%)
Language                                 : Hungarian
Default                                  : No
Forced                                   : No

Text #21
ID                                       : 24
Format                                   : UTF-8
Codec ID                                 : S_TEXT/UTF8
Codec ID/Info                            : UTF-8 Plain Text
Duration                                 : 13 min 48 s
Bit rate                                 : 45 b/s
Frame rate                               : 0.177 FPS
Count of elements                        : 147
Stream size                              : 4.57 KiB (0%)
Language                                 : Indonesian
Default                                  : No
Forced                                   : No

Text #22
ID                                       : 25
Format                                   : UTF-8
Codec ID                                 : S_TEXT/UTF8
Codec ID/Info                            : UTF-8 Plain Text
Duration                                 : 13 min 48 s
Bit rate                                 : 41 b/s
Frame rate                               : 0.179 FPS
Count of elements                        : 148
Stream size                              : 4.15 KiB (0%)
Language                                 : Italian
Default                                  : No
Forced                                   : No

Text #23
ID                                       : 26
Format                                   : UTF-8
Codec ID                                 : S_TEXT/UTF8
Codec ID/Info                            : UTF-8 Plain Text
Duration                                 : 11 min 38 s
Bit rate                                 : 60 b/s
Frame rate                               : 0.213 FPS
Count of elements                        : 149
Stream size                              : 5.02 KiB (0%)
Language                                 : Korean
Default                                  : No
Forced                                   : No

Text #24
ID                                       : 27
Format                                   : UTF-8
Codec ID                                 : S_TEXT/UTF8
Codec ID/Info                            : UTF-8 Plain Text
Duration                                 : 13 min 48 s
Bit rate                                 : 48 b/s
Frame rate                               : 0.177 FPS
Count of elements                        : 147
Stream size                              : 4.80 KiB (0%)
Language                                 : Malay
Default                                  : No
Forced                                   : No

Text #25
ID                                       : 28
Format                                   : UTF-8
Codec ID                                 : S_TEXT/UTF8
Codec ID/Info                            : UTF-8 Plain Text
Duration                                 : 13 min 48 s
Bit rate                                 : 44 b/s
Frame rate                               : 0.180 FPS
Count of elements                        : 149
Stream size                              : 4.44 KiB (0%)
Language                                 : Norwegian Bokmal
Default                                  : No
Forced                                   : No

Text #26
ID                                       : 29
Format                                   : UTF-8
Codec ID                                 : S_TEXT/UTF8
Codec ID/Info                            : UTF-8 Plain Text
Duration                                 : 13 min 48 s
Bit rate                                 : 44 b/s
Frame rate                               : 0.180 FPS
Count of elements                        : 149
Stream size                              : 4.40 KiB (0%)
Language                                 : Dutch
Default                                  : No
Forced                                   : No

Text #27
ID                                       : 30
Format                                   : UTF-8
Codec ID                                 : S_TEXT/UTF8
Codec ID/Info                            : UTF-8 Plain Text
Duration                                 : 13 min 48 s
Bit rate                                 : 41 b/s
Frame rate                               : 0.180 FPS
Count of elements                        : 149
Stream size                              : 4.12 KiB (0%)
Language                                 : Polish
Default                                  : No
Forced                                   : No

Text #28
ID                                       : 31
Format                                   : UTF-8
Codec ID                                 : S_TEXT/UTF8
Codec ID/Info                            : UTF-8 Plain Text
Duration                                 : 13 min 48 s
Bit rate                                 : 44 b/s
Frame rate                               : 0.182 FPS
Count of elements                        : 151
Stream size                              : 4.38 KiB (0%)
Title                                    : Brazilian
Language                                 : Portuguese
Default                                  : No
Forced                                   : No

Text #29
ID                                       : 32
Format                                   : UTF-8
Codec ID                                 : S_TEXT/UTF8
Codec ID/Info                            : UTF-8 Plain Text
Duration                                 : 13 min 48 s
Bit rate                                 : 47 b/s
Frame rate                               : 0.180 FPS
Count of elements                        : 149
Stream size                              : 4.72 KiB (0%)
Title                                    : European
Language                                 : Portuguese
Default                                  : No
Forced                                   : No

Text #30
ID                                       : 33
Format                                   : UTF-8
Codec ID                                 : S_TEXT/UTF8
Codec ID/Info                            : UTF-8 Plain Text
Duration                                 : 13 min 48 s
Bit rate                                 : 45 b/s
Frame rate                               : 0.177 FPS
Count of elements                        : 147
Stream size                              : 4.56 KiB (0%)
Language                                 : Romanian
Default                                  : No
Forced                                   : No

Text #31
ID                                       : 34
Format                                   : UTF-8
Codec ID                                 : S_TEXT/UTF8
Codec ID/Info                            : UTF-8 Plain Text
Duration                                 : 13 min 48 s
Bit rate                                 : 76 b/s
Frame rate                               : 0.180 FPS
Count of elements                        : 149
Stream size                              : 7.66 KiB (0%)
Language                                 : Russian
Default                                  : No
Forced                                   : No

Text #32
ID                                       : 35
Format                                   : UTF-8
Codec ID                                 : S_TEXT/UTF8
Codec ID/Info                            : UTF-8 Plain Text
Duration                                 : 13 min 48 s
Bit rate                                 : 46 b/s
Frame rate                               : 0.180 FPS
Count of elements                        : 149
Stream size                              : 4.64 KiB (0%)
Language                                 : Swedish
Default                                  : No
Forced                                   : No

Text #33
ID                                       : 36
Format                                   : UTF-8
Codec ID                                 : S_TEXT/UTF8
Codec ID/Info                            : UTF-8 Plain Text
Duration                                 : 13 min 48 s
Bit rate                                 : 108 b/s
Frame rate                               : 0.180 FPS
Count of elements                        : 149
Stream size                              : 10.8 KiB (0%)
Language                                 : Thai
Default                                  : No
Forced                                   : No

Text #34
ID                                       : 37
Format                                   : UTF-8
Codec ID                                 : S_TEXT/UTF8
Codec ID/Info                            : UTF-8 Plain Text
Duration                                 : 13 min 48 s
Bit rate                                 : 48 b/s
Frame rate                               : 0.180 FPS
Count of elements                        : 149
Stream size                              : 4.86 KiB (0%)
Language                                 : Turkish
Default                                  : No
Forced                                   : No

Text #35
ID                                       : 38
Format                                   : UTF-8
Codec ID                                 : S_TEXT/UTF8
Codec ID/Info                            : UTF-8 Plain Text
Duration                                 : 13 min 48 s
Bit rate                                 : 78 b/s
Frame rate                               : 0.180 FPS
Count of elements                        : 149
Stream size                              : 7.82 KiB (0%)
Language                                 : Ukrainian
Default                                  : No
Forced                                   : No

Text #36
ID                                       : 39
Format                                   : UTF-8
Codec ID                                 : S_TEXT/UTF8
Codec ID/Info                            : UTF-8 Plain Text
Duration                                 : 13 min 48 s
Bit rate                                 : 57 b/s
Frame rate                               : 0.175 FPS
Count of elements                        : 145
Stream size                              : 5.67 KiB (0%)
Language                                 : Vietnamese
Default                                  : No
Forced                                   : No

Text #37
ID                                       : 40
Format                                   : UTF-8
Codec ID                                 : S_TEXT/UTF8
Codec ID/Info                            : UTF-8 Plain Text
Duration                                 : 11 min 38 s
Bit rate                                 : 52 b/s
Frame rate                               : 0.212 FPS
Count of elements                        : 148
Stream size                              : 4.41 KiB (0%)
Title                                    : Simplified
Language                                 : Chinese
Default                                  : No
Forced                                   : No

Text #38
ID                                       : 41
Format                                   : UTF-8
Codec ID                                 : S_TEXT/UTF8
Codec ID/Info                            : UTF-8 Plain Text
Duration                                 : 11 min 38 s
Bit rate                                 : 53 b/s
Frame rate                               : 0.213 FPS
Count of elements                        : 149
Stream size                              : 4.49 KiB (0%)
Title                                    : Traditional
Language                                 : Chinese
Default                                  : No
Forced                                   : No

Menu
00:00:00.000                             : Scene 1
00:11:43.450                             : Credits

Other Files in this Torrent
Pokemon Concierge - S01E02 - What's on Your Mind, Psyduck.mkv
beta
Anime DDL+NZB mirror
Current Time: 12/07/2024 23:18



About/FAQs

Discord