Pocket Monsters (1997) episode 062 [TSHS] Pippi VS Purin [E54419A3].mkv


File Size194.3 MB (203,770,047 bytes)
DownloadClickNUpload | Jheberg | MultiUp
  • BdUpload
  • DownAce
  • Fichier
  • FileCloud
  • Filerio
  • FilesCdn
  • IndiShare
  • Kbagi
  • Turbobit
  • UpToBox
  • Uppit
| Sendspace | SolidFiles | ZippyShare
HashesCRC32: E54419A3, MD5: 9D1F8AC469CEA97BB6081649948E5B66, SHA1: 5770C47FB755CA915B1E3C5ECF474F9CEED7B35A, SHA256: 69C9691D83C60F9354D2E8F5B684AFB7D38B0E006F87FC89A5DF94FB0904B947, ED2K: 87B518C750AA94D11D37965AEDE6B614
Screenshots
screenshotscreenshotscreenshotscreenshotscreenshot
SubtitlesAll Attachments | eng [ASS]
Additional Info
General
Unique ID                                : 288906198537762542793777174801876935820 (0xD9594F54D6E10C69FA97117197C6648C)
Complete name                            : Pocket Monsters (1997) episode 062 [TSHS] Pippi VS Purin [E54419A3].mkv
Format                                   : Matroska
Format version                           : Version 4
File size                                : 194 MiB
Duration                                 : 24 min 59 s
Overall bit rate                         : 1 087 kb/s
Encoded date                             : UTC 2020-01-31 12:53:10
Writing application                      : mkvmerge v23.0.0 ('The Bride Said No') 64-bit
Writing library                          : libebml v1.3.6 + libmatroska v1.4.9
Attachments                              : AG Book Rounded Regular.otf / digistrip.ttf / trebucbd.ttf / trebucbi.ttf

Video
ID                                       : 1
Format                                   : AVC
Format/Info                              : Advanced Video Codec
Format profile                           : High@L3.2
Format settings                          : CABAC / 16 Ref Frames
Format settings, CABAC                   : Yes
Format settings, ReFrames                : 16 frames
Codec ID                                 : V_MPEG4/ISO/AVC
Duration                                 : 24 min 59 s
Bit rate                                 : 958 kb/s
Width                                    : 640 pixels
Height                                   : 480 pixels
Display aspect ratio                     : 4:3
Frame rate mode                          : Constant
Frame rate                               : 23.976 (24000/1001) FPS
Color space                              : YUV
Chroma subsampling                       : 4:2:0
Bit depth                                : 8 bits
Scan type                                : Progressive
Bits/(Pixel*Frame)                       : 0.130
Stream size                              : 171 MiB (88%)
Writing library                          : x264 core 132 r2310 76a5c3a
Encoding settings                        : cabac=1 / ref=16 / deblock=1:0:0 / analyse=0x3:0x133 / me=umh / subme=10 / psy=1 / psy_rd=1.10:0.00 / mixed_ref=1 / me_range=40 / chroma_me=1 / trellis=2 / 8x8dct=1 / cqm=0 / deadzone=21,11 / fast_pskip=0 / chroma_qp_offset=-4 / threads=8 / lookahead_threads=2 / sliced_threads=0 / nr=0 / decimate=1 / interlaced=0 / bluray_compat=0 / constrained_intra=0 / bframes=16 / b_pyramid=2 / b_adapt=2 / b_bias=0 / direct=1 / weightb=1 / open_gop=0 / weightp=2 / keyint=288 / keyint_min=23 / scenecut=40 / intra_refresh=0 / rc_lookahead=60 / rc=crf / mbtree=1 / crf=18.0 / qcomp=0.60 / qpmin=0 / qpmax=69 / qpstep=4 / ip_ratio=1.40 / aq=1:1.00
Default                                  : Yes
Forced                                   : No

Audio
ID                                       : 2
Format                                   : AAC LC
Format/Info                              : Advanced Audio Codec Low Complexity
Codec ID                                 : A_AAC-2
Duration                                 : 24 min 59 s
Bit rate                                 : 125 kb/s
Channel(s)                               : 2 channels
Channel layout                           : L R
Sampling rate                            : 48.0 kHz
Frame rate                               : 46.875 FPS (1024 SPF)
Compression mode                         : Lossy
Stream size                              : 22.3 MiB (11%)
Language                                 : Japanese
Default                                  : Yes
Forced                                   : No

Text
ID                                       : 3
Format                                   : ASS
Codec ID                                 : S_TEXT/ASS
Codec ID/Info                            : Advanced Sub Station Alpha
Duration                                 : 24 min 58 s
Bit rate                                 : 169 b/s
Count of elements                        : 499
Compression mode                         : Lossless
Stream size                              : 31.1 KiB (0%)
Language                                 : English
Default                                  : Yes
Forced                                   : No

Menu
00:00:00.000                             : ja:OP - Mezase Pokémon Master
00:01:37.990                             : ja:Part A
00:11:35.500                             : :Eyecatches
00:11:47.010                             : ja:Part B
00:21:53.980                             : ja:ED - Pokémon Ondo  
00:23:14.870                             : ja:Pokémon Lecture
00:24:14.800                             : :Preview
beta
Anime DDL+NZB mirror
Current Time: 14/07/2024 17:46



About/FAQs

Discord