Pocket Monsters (1997) episode 018 [TSHS-AO] (VHS fansub of original broadcast).mpg


File Size895.1 MB (938,608,640 bytes)
DownloadClickNUpload | DownloadGG
MultiUp: Part1
  • BdUpload
  • DownAce
  • Fichier
  • FileCloud
  • Filerio
  • FilesCdn
  • IndiShare
  • Kbagi
  • Turbobit
  • UpToBox
  • Uppit
, Part2
  • BdUpload
  • DownAce
  • Fichier
  • FileCloud
  • Filerio
  • FilesCdn
  • IndiShare
  • Kbagi
  • Turbobit
  • UpToBox
  • Uppit

ZippyShare: Part1, Part2
HashesCRC32: C9BB3A2E, MD5: 5A9B30FDC68B89B6B2A1A0DD3DC39030, SHA1: B9B1DB271DE5082BC2E8424E4DA13522E522DEED, SHA256: 18F853793E0A1A5F916A740DCBBF78540091A7F0A70CCC653359137C47913311, ED2K: 424BC1AAF03496A99FF034167724BEFE
Additional Info
General
Complete name                            : Pocket Monsters (1997) episode 018 [TSHS-AO] (VHS fansub of original broadcast).mpg
Format                                   : MPEG-PS
File size                                : 895 MiB
Duration                                 : 27 min 4 s
Overall bit rate mode                    : Variable
Overall bit rate                         : 4 622 kb/s

Video
ID                                       : 224 (0xE0)
Format                                   : MPEG Video
Format version                           : Version 2
Format profile                           : Main@Main
Format settings                          : CustomMatrix / BVOP
Format settings, BVOP                    : Yes
Format settings, Matrix                  : Custom
Format settings, GOP                     : M=3, N=15
Format settings, picture structure       : Frame
Duration                                 : 27 min 4 s
Bit rate mode                            : Variable
Bit rate                                 : 4 274 kb/s
Maximum bit rate                         : 9 558 kb/s
Width                                    : 704 pixels
Height                                   : 480 pixels
Display aspect ratio                     : 4:3
Frame rate                               : 29.970 (30000/1001) FPS
Standard                                 : NTSC
Color space                              : YUV
Chroma subsampling                       : 4:2:0
Bit depth                                : 8 bits
Scan type                                : Interlaced
Scan order                               : Top Field First
Compression mode                         : Lossy
Bits/(Pixel*Frame)                       : 0.422
Time code of first frame                 : 00:00:00:00
Time code source                         : Group of pictures header
GOP, Open/Closed                         : Open
Stream size                              : 828 MiB (92%)
Color primaries                          : BT.601 NTSC
Transfer characteristics                 : BT.601
Matrix coefficients                      : BT.601

Audio
ID                                       : 189 (0xBD)-128 (0x80)
Format                                   : AC-3
Format/Info                              : Audio Coding 3
Commercial name                          : Dolby Digital
Muxing mode                              : DVD-Video
Duration                                 : 27 min 4 s
Bit rate mode                            : Constant
Bit rate                                 : 256 kb/s
Channel(s)                               : 2 channels
Channel layout                           : L R
Sampling rate                            : 48.0 kHz
Frame rate                               : 31.250 FPS (1536 SPF)
Compression mode                         : Lossy
Delay relative to video                  : -75 ms
Stream size                              : 49.6 MiB (6%)
Service kind                             : Complete Main

Menu

Other Files in this Torrent
Pocket Monsters (1997) episode 018 [TSHS-AO] (VHS fansub of original broadcast).mpg
beta
Anime DDL+NZB mirror
Current Time: 24/06/2024 14:01



About/FAQs

Discord