File Size887.3 MB (930,387,422 bytes)
DownloadClickNUpload | Jheberg | MultiUp
  • ClickNupload
  • Fichier
  • Filerio
  • Free
  • Fufox
  • HugeFiles
  • Mightyupload
  • ToutBox
  • Turbobit
  • UpToBox
  • Uplea
  • UploadBaz
  • Uploadable
  • Uploaded
  • Uppit
  • Userscloud
| OpenLoad | Upfile.mobi
Sendspace: Part1, Part2, Part3
SolidFiles: Part1, Part2
HashesCRC32: BD1F0BB9, MD5: CB2406C847E32A4582856D150F7398E7, SHA1: 30B477A9F1CD392A4C971A6D8070DCCB61BAE7C3, SHA256: F11404A9754E41C5C987BA86E857341BBD94F5BE34F09A52718E3DD6CEC724D7, ED2K: 66B3DFEE7EB5E62A0796E2EBEBF32340
Screenshots
screenshotscreenshotscreenshotscreenshotscreenshot
SubtitlesAll Attachments | eng [ASS]
Additional Info
General
Unique ID                                : 223244262286704415736462992834479901290 (0xA7F347ED5380EEF184E37D883D99CA6A)
Complete name                            : [PAS] Made in Abyss - 02 [BD 1080p AAC] [BD1F0BB9].mkv
Format                                   : Matroska
Format version                           : Version 4 / Version 2
File size                                : 887 MiB
Duration                                 : 23 min 40 s
Overall bit rate                         : 5 242 kb/s
Encoded date                             : UTC 2017-11-19 03:39:10
Writing application                      : mkvmerge v18.0.0 ('Apricity') 64-bit
Writing library                          : libebml v1.3.5 + libmatroska v1.4.8
Attachments                              : DFGYOSHO-LT-WING-RKSJ-H.TTF / DRIPDROP.TTF / playtime.ttf / QLASSIKMEDIUM.OTF / saru(sRB).TTF / CronosPro-Semibold.ttf / CronosPro-SemiboldIt.ttf

Video
ID                                       : 1
Format                                   : AVC
Format/Info                              : Advanced Video Codec
Format profile                           : High 10@L5.1
Format settings, CABAC                   : Yes
Format settings, ReFrames                : 16 frames
Codec ID                                 : V_MPEG4/ISO/AVC
Duration                                 : 23 min 40 s
Bit rate                                 : 4 939 kb/s
Width                                    : 1 920 pixels
Height                                   : 1 080 pixels
Display aspect ratio                     : 16:9
Frame rate mode                          : Constant
Frame rate                               : 23.976 (24000/1001) FPS
Color space                              : YUV
Chroma subsampling                       : 4:2:0
Bit depth                                : 10 bits
Scan type                                : Progressive
Bits/(Pixel*Frame)                       : 0.099
Stream size                              : 836 MiB (94%)
Writing library                          : x264 core 148 r2762+56 7979737 t_mod_Custom [10-bit@all X86_64]
Encoding settings                        : cabac=1 / ref=16 / deblock=1:-1:-1 / analyse=0x3:0x133 / me=tesa / subme=10 / psy=1 / fade_compensate=0.80 / psy_rd=0.95:0.00 / mixed_ref=1 / me_range=48 / chroma_me=1 / trellis=2 / 8x8dct=1 / cqm=0 / deadzone=21,11 / fast_pskip=1 / chroma_qp_offset=-2 / threads=12 / lookahead_threads=3 / sliced_threads=0 / nr=0 / decimate=1 / interlaced=0 / bluray_compat=0 / constrained_intra=0 / fgo=0 / bframes=16 / b_pyramid=2 / b_adapt=2 / b_bias=0 / direct=3 / weightb=1 / open_gop=0 / weightp=2 / keyint=250 / keyint_min=23 / scenecut=40 / intra_refresh=0 / rc_lookahead=60 / rc=crf / mbtree=1 / crf=15.0000 / qcomp=0.65 / qpmin=0:0:0 / qpmax=81:81:81 / qpstep=4 / ip_ratio=1.40 / aq=3:0.80 / aq-sensitivity=10.00 / aq-factor=1.00:1.00:1.00 / aq2=0 / aq3=0 / zones=23725,24650,psy-rd=1.00:0.00,deblock=-2:-2,no-dct-decimate,crf=19
Language                                 : Japanese
Default                                  : Yes
Forced                                   : No
Color range                              : Limited
Matrix coefficients                      : BT.709

Audio
ID                                       : 2
Format                                   : AAC
Format/Info                              : Advanced Audio Codec
Format profile                           : LC
Codec ID                                 : A_AAC
Duration                                 : 23 min 40 s
Bit rate                                 : 272 kb/s
Channel(s)                               : 2 channels
Channel positions                        : Front: L R
Sampling rate                            : 48.0 kHz
Frame rate                               : 46.875 FPS (1024 spf)
Compression mode                         : Lossy
Stream size                              : 46.0 MiB (5%)
Language                                 : Japanese
Default                                  : Yes
Forced                                   : No

Text
ID                                       : 3
Format                                   : ASS
Codec ID                                 : S_TEXT/ASS
Codec ID/Info                            : Advanced Sub Station Alpha
Duration                                 : 23 min 38 s
Bit rate                                 : 480 b/s
Count of elements                        : 435
Compression mode                         : Lossless
Stream size                              : 83.2 KiB (0%)
Language                                 : English
Default                                  : Yes
Forced                                   : No

Menu
00:00:00.000                             : :Intro
00:00:35.035                             : :OP
00:02:05.000                             : :Part A
00:11:46.039                             : :Part B
00:21:59.985                             : :ED
00:23:29.992                             : :Preview
beta
Anime DDL+NZB mirror
Current Time: 23/06/2024 01:35



About/FAQs

Discord